<?xml version="1.0" standalone="no"?>
<!DOCTYPE svg PUBLIC "-//W3C//DTD SVG 1.1//EN" "http://www.w3.org/Graphics/SVG/1.1/DTD/svg11.dtd" >
<svg xmlns="http://www.w3.org/2000/svg">
<metadata></metadata>
<defs>
<font id="archivo_narrowitalic" horiz-adv-x="934" >
<font-face units-per-em="2048" ascent="1638" descent="-410" />
<missing-glyph horiz-adv-x="467" />
<glyph horiz-adv-x="0" />
<glyph unicode="&#xd;" horiz-adv-x="0" />
<glyph unicode=" "  horiz-adv-x="467" />
<glyph unicode="&#x09;" horiz-adv-x="467" />
<glyph unicode="&#xa0;" horiz-adv-x="467" />
<glyph unicode="!" horiz-adv-x="467" d="M78 0l31 221h204l-30 -221h-205zM164 350q25 264 50.5 527.5t47.5 527.5h232q-7 -29 -19.5 -93t-29 -150t-36.5 -189t-40 -210.5t-40 -213.5t-38 -199h-127z" />
<glyph unicode="&#x22;" horiz-adv-x="596" d="M154 1104l43 301h168l-43 -301q-20 -69 -40 -135.5t-40 -134.5h-80zM426 1104l43 301h168l-43 -301q-22 -69 -42 -135.5t-40 -134.5h-80z" />
<glyph unicode="#" d="M35 367v155h166l69 318h-155v155h190l96 430h156l-96 -430h184l96 430h156l-96 -430h123v-155h-158l-70 -318h146v-155h-180l-82 -367h-156l82 367h-184l-82 -367h-156l82 367h-131zM356 522h185l69 318h-184z" />
<glyph unicode="$" d="M113 471q0 16 0.5 32.5t3.5 33.5h166q-3 -17 -5 -33.5t-2 -32.5q0 -69 33.5 -111t85.5 -61l51 360q-42 24 -83.5 50.5t-75 61t-54 81t-20.5 111.5q0 61 20.5 114.5t60.5 94t99.5 65.5t138.5 29l31 215h99l-33 -221q65 -12 111 -44t75.5 -77t43 -99.5t13.5 -111.5h-165 q0 76 -28.5 117.5t-70.5 58.5l-45 -320q45 -22 90 -47t81.5 -60.5t59.5 -86t23 -123.5q0 -77 -24.5 -137t-69.5 -101.5t-109 -64.5t-143 -25l-33 -241h-98l35 249q-57 12 -105 39.5t-83 69.5t-54.5 96t-19.5 119zM379 987q0 -52 26 -87.5t66 -61.5l41 278q-24 -4 -47.5 -14 t-42.5 -26.5t-31 -38.5t-12 -50zM492 287q36 3 65.5 16t50 33.5t32 47t11.5 56.5q0 58 -32.5 96.5t-81.5 69.5z" />
<glyph unicode="%" horiz-adv-x="1493" d="M150 938q0 143 25 237.5t67.5 151t98 80t116.5 23.5q56 0 99.5 -12.5t73.5 -41.5t46 -76.5t16 -117.5q0 -49 -5 -104.5t-17.5 -110.5t-34.5 -105t-56 -88t-81.5 -61t-110.5 -23q-54 0 -98 12.5t-75 41.5t-47.5 76.5t-16.5 117.5zM174 0l1055 1405h145l-1057 -1405h-143z M291 946q0 -63 21 -99t75 -36q37 0 62.5 17t43.5 48t29 74t19 94t10 79.5t2 50.5q0 61 -21.5 98t-74.5 37q-37 0 -63 -17.5t-43.5 -48.5t-28.5 -74t-19 -94q-8 -50 -10 -78.5t-2 -50.5zM852 223q0 143 25 237.5t67.5 151t98 80t116.5 23.5q56 0 100 -12.5t74 -41.5t46 -76.5 t16 -117.5q0 -49 -5 -104.5t-18 -110.5t-35 -105t-55.5 -88t-81 -61t-110.5 -23q-55 0 -99 12.5t-75 41.5t-47.5 76.5t-16.5 117.5zM993 231q0 -63 21.5 -99t75.5 -36q37 0 62.5 17.5t43 48.5t28.5 74t19 94q7 50 9.5 78.5t2.5 50.5q0 62 -21 98.5t-75 36.5q-37 0 -62.5 -17 t-43 -48t-29 -74t-18.5 -95q-8 -50 -10.5 -78.5t-2.5 -50.5z" />
<glyph unicode="&#x26;" horiz-adv-x="1120" d="M37 313q0 83 22 150.5t58 118.5t83 86t97 53v8q-63 38 -102 97.5t-39 154.5q0 108 36 192t99 141t148 86.5t182 29.5q90 0 163 -22.5t125 -65t80.5 -103t28.5 -135.5q0 -14 -2 -33.5t-8 -62.5h-168q5 27 6.5 41.5t1.5 25.5q0 52 -17 90t-47.5 62.5t-73 36.5t-92.5 12 q-53 0 -104 -16t-91 -50.5t-64.5 -90t-24.5 -134.5q0 -50 14.5 -87t39.5 -61.5t58.5 -36.5t71.5 -12h105l-21 -149h-100q-48 0 -98.5 -13.5t-91.5 -48t-67 -94t-26 -151.5q0 -54 16.5 -92.5t47.5 -63t74.5 -36t97.5 -11.5q261 0 299 262l55 397h311l-20 -151h-144l-32 -240 q-12 -96 -50 -174t-99.5 -133t-145 -85t-187.5 -30q-92 0 -166.5 23t-127.5 66.5t-82 106t-29 142.5z" />
<glyph unicode="'" horiz-adv-x="322" d="M154 1104l43 301h168l-43 -301q-20 -69 -40 -135.5t-40 -134.5h-80z" />
<glyph unicode="(" horiz-adv-x="559" d="M66 395q0 48 3 96.5t11 98.5q18 126 57.5 249.5t99 239.5t137 223.5t171.5 202.5h110q-87 -116 -162.5 -250.5t-131 -278.5t-87.5 -292.5t-32 -292.5q0 -97 11.5 -192.5t32 -186.5t49.5 -175.5t64 -158.5h-110q-110 153 -166.5 335.5t-56.5 381.5z" />
<glyph unicode=")" horiz-adv-x="559" d="M-96 -322q86 115 161 250.5t131 280t88.5 293t32.5 291.5q0 97 -11.5 192.5t-32.5 186t-50.5 175t-64.5 158.5h110q110 -152 165.5 -335.5t55.5 -383.5q0 -49 -4 -98t-10 -98q-18 -126 -57 -249t-98 -238.5t-136.5 -223t-171.5 -201.5h-108z" />
<glyph unicode="*" horiz-adv-x="653" d="M133 1055l180 78l-157 77l86 119l137 -106l6 182h139l-43 -180l166 104l53 -119l-178 -77l156 -78l-86 -121l-137 106l-6 -182h-140l43 182l-166 -106z" />
<glyph unicode="+" horiz-adv-x="981" d="M76 436l22 172h316l61 439h170l-61 -439h317l-22 -172h-318l-61 -436h-170l61 436h-315z" />
<glyph unicode="," horiz-adv-x="467" d="M37 -254l104 254h-67l30 221h205l-28 -203l-131 -272h-113z" />
<glyph unicode="-" horiz-adv-x="559" d="M6 453l27 200h516l-27 -200h-516z" />
<glyph unicode="." horiz-adv-x="467" d="M78 0l31 221h204l-30 -221h-205z" />
<glyph unicode="/" horiz-adv-x="467" d="M-96 -100l547 1605h143l-547 -1605h-143z" />
<glyph unicode="0" d="M78 395q0 130 24 307q28 214 71.5 355t102 223.5t131.5 116t160 33.5q76 0 137 -20.5t104 -70t66 -132t23 -206.5q0 -63 -6 -137t-19 -162q-29 -214 -73 -354.5t-102.5 -223t-131 -116t-159.5 -33.5q-76 0 -137 20.5t-103.5 69t-65 129.5t-22.5 201zM244 412 q0 -65 7.5 -117.5t26.5 -90.5t50 -58.5t78 -20.5q63 0 109 38t79.5 105.5t56.5 160t39 202.5q11 86 18.5 146t12 103t6.5 72.5t2 55.5q0 62 -8.5 112.5t-28 86t-50 54.5t-75.5 19q-62 0 -108.5 -38t-80.5 -105.5t-57 -160t-38 -202.5q-12 -79 -19.5 -136t-12 -99t-6 -72 t-1.5 -55z" />
<glyph unicode="1" d="M16 0l23 150h334l139 999h-336l14 106q44 5 101.5 18t119.5 32.5t124 45t116 54.5h66l-176 -1255h307l-23 -150h-809z" />
<glyph unicode="2" d="M20 0l5 27q24 166 139 305q52 62 115.5 123t129 122t127 123t110 127.5t77.5 135t29 145.5q0 31 -8 60.5t-26.5 53t-50 38t-79.5 14.5q-54 0 -95 -21.5t-70 -58t-46.5 -85.5t-24.5 -103l-10 -84h-174q0 103 27 195t81 161.5t135.5 110.5t190.5 41q71 0 131.5 -17 t104.5 -52.5t69 -91t25 -132.5q0 -98 -32.5 -184.5t-85.5 -164.5t-120.5 -148.5t-137.5 -137t-136 -130.5t-117 -128q-15 -19 -26.5 -37t-20.5 -35h551l-25 -172h-762z" />
<glyph unicode="3" d="M49 311q0 20 1.5 44t6.5 59h170q-6 -35 -7 -59t-1 -33q0 -97 49 -147t142 -50q50 0 96 19t81.5 58.5t57 101t21.5 147.5q0 55 -17 91.5t-44.5 58t-64 30t-75.5 8.5h-117l21 149h120q45 0 88 18.5t77.5 56.5t55.5 95.5t21 135.5q0 49 -12.5 84.5t-34.5 58t-51.5 33 t-63.5 10.5q-42 0 -79.5 -15.5t-68 -48.5t-52.5 -84.5t-33 -123.5h-172q7 99 43.5 177.5t93 132.5t128 83t149.5 29q75 0 136 -20t103.5 -59t66 -96.5t23.5 -132.5q0 -81 -18.5 -142.5t-50.5 -109t-74 -82t-90 -59.5v-8q72 -29 118 -96t46 -174q0 -110 -34.5 -198t-93 -150 t-135.5 -95t-163 -33q-90 0 -158 23.5t-113.5 67t-68.5 105.5t-23 140z" />
<glyph unicode="4" d="M23 346l20 152q69 100 137.5 213.5t132 233t121 242.5t105.5 243h170q-33 -94 -77 -192t-92.5 -192.5t-99 -181.5t-96.5 -159.5t-84 -126.5t-61 -82h385l63 442q21 37 37 71t30.5 67.5t28.5 68.5t29 76h82l-102 -725h143l-21 -150h-143l-49 -346h-168l49 346h-540z" />
<glyph unicode="5" d="M55 336q0 23 1.5 48.5t6.5 51.5h175q-4 -18 -5.5 -36t-1.5 -35q0 -56 13.5 -101t38 -76.5t58 -48t73.5 -16.5q48 0 96 25t86.5 76.5t63 129.5t24.5 183q0 109 -45.5 167t-122.5 58q-68 0 -128.5 -45t-102.5 -117l-156 27l158 778h639l-25 -172h-493l-89 -428 q19 17 44.5 36t57.5 35t70 26.5t82 10.5q62 0 114.5 -21t91 -63t60 -106t21.5 -150q0 -143 -35.5 -254t-96 -187.5t-142 -116.5t-174.5 -40q-83 0 -149.5 24.5t-112.5 71t-70.5 113.5t-24.5 152z" />
<glyph unicode="6" d="M90 403q0 56 5 120t16 139q30 219 75.5 366.5t107 237t138 127t168.5 37.5q78 0 134 -25t92 -70t52.5 -107t16.5 -136q0 -28 -1.5 -58t-6.5 -61h-170q3 28 5.5 52.5t2.5 47.5q0 100 -32.5 153.5t-100.5 53.5q-66 0 -114 -37t-82.5 -106t-58.5 -167t-42 -220q53 61 121 97 t145 36q76 0 131.5 -26.5t92 -73t54 -110t17.5 -138.5q0 -128 -35 -231t-94 -176.5t-136.5 -113t-162.5 -39.5q-79 0 -142 22t-106.5 72.5t-66.5 132t-23 201.5zM258 348q0 -48 9 -89t28.5 -71t50 -46.5t72.5 -16.5q48 0 86.5 18t68 48.5t50 70.5t34 82.5t19.5 85.5t6 80 q0 48 -10 89.5t-30.5 71.5t-52 47t-75.5 17q-61 0 -108.5 -32t-80.5 -85.5t-50 -123.5t-17 -146z" />
<glyph unicode="7" d="M178 1233l25 172h798l-16 -109q-58 -73 -120.5 -157.5t-123 -179t-117 -197.5t-103 -211t-80.5 -220.5t-50 -226.5q-2 -14 -3.5 -25.5t-2.5 -22.5t-3 -25l-3 -31h-199q17 121 51 239t79.5 230.5t100.5 218.5t113.5 202.5t118 183t115.5 159.5h-580z" />
<glyph unicode="8" d="M53 299q0 64 13 127t41.5 119t73 101.5t106.5 74.5q-57 42 -85 105t-28 141q0 92 27.5 176t79.5 147.5t127.5 101.5t171.5 38q81 0 140.5 -24.5t98.5 -68t58.5 -102t19.5 -125.5q0 -60 -13.5 -117.5t-39.5 -108t-64 -92.5t-86 -71q75 -40 107.5 -107t32.5 -153 q0 -97 -26.5 -185t-80.5 -155t-136.5 -106.5t-193.5 -39.5q-92 0 -157 24.5t-106.5 68t-61 103t-19.5 128.5zM227 322q0 -93 45 -145t136 -52q57 0 103.5 23t80 65t52 101t18.5 132q0 93 -46 145t-137 52q-62 0 -109 -25.5t-78.5 -69t-48 -102t-16.5 -124.5zM342 981 q0 -90 42 -139t118 -49q47 0 88.5 21t72 60t48.5 95t18 125q0 88 -42.5 137t-117.5 49q-54 0 -96.5 -25.5t-71.5 -67t-44 -95.5t-15 -111z" />
<glyph unicode="9" d="M96 313q0 28 1.5 58t6.5 61h170q-3 -28 -5.5 -52.5t-2.5 -47.5q0 -100 32.5 -153.5t100.5 -53.5q66 0 114 37t82.5 106t58.5 167t42 220q-52 -62 -120.5 -97.5t-145.5 -35.5q-76 0 -131.5 26t-92 72.5t-54 110.5t-17.5 139q0 127 35 230.5t94 177t136.5 113t162.5 39.5 q79 0 142 -22t106.5 -72.5t66.5 -132.5t23 -202q0 -55 -4.5 -119t-15.5 -139q-30 -219 -76 -366.5t-107.5 -237t-138.5 -127t-168 -37.5q-78 0 -134 25t-92 70t-52.5 107t-16.5 136zM309 895q0 -48 10 -89.5t30.5 -71.5t52 -47t75.5 -17q61 0 108.5 32t80.5 85.5t50 123.5 t17 146q0 48 -9 89t-28.5 71t-50 46.5t-72.5 16.5q-49 0 -87 -18.5t-67.5 -49t-50.5 -70t-34 -82.5t-19 -85.5t-6 -79.5z" />
<glyph unicode=":" horiz-adv-x="467" d="M74 0l30 221h205l-30 -221h-205zM195 856l30 221h205l-31 -221h-204z" />
<glyph unicode=";" horiz-adv-x="467" d="M37 -254l104 254h-67l30 221h205l-28 -203l-131 -272h-113zM195 856l30 221h205l-31 -221h-204z" />
<glyph unicode="&#x3c;" horiz-adv-x="981" d="M74 410l30 219l861 403l-27 -184l-682 -328l590 -327l-27 -185z" />
<glyph unicode="=" horiz-adv-x="981" d="M45 217l23 170h802l-22 -170h-803zM104 651l25 172h803l-25 -172h-803z" />
<glyph unicode="&#x3e;" horiz-adv-x="981" d="M16 8l27 185l684 327l-592 328l27 184l745 -403l-30 -219z" />
<glyph unicode="?" d="M139 940q1 97 31 186t85.5 156.5t136.5 107.5t186 40q73 0 133.5 -22t103.5 -62.5t66.5 -97.5t23.5 -126q0 -102 -24 -175t-60.5 -127.5t-80.5 -96.5t-83.5 -82t-69 -84.5t-38.5 -103.5l-12 -84h-179l17 114q10 72 39 123t67 92.5t79 78.5t75 80.5t56.5 99t23.5 133.5 q0 27 -6 59t-22.5 59.5t-47 45.5t-78.5 18q-57 0 -97 -23.5t-66.5 -59t-41.5 -77.5t-22.5 -79t-9.5 -63t-2 -30h-183zM291 0l33 221h204l-32 -221h-205z" />
<glyph unicode="@" horiz-adv-x="1704" d="M113 397q0 253 60 446.5t172 323.5t271.5 196.5t358.5 66.5q139 0 241.5 -22.5t176 -64t120.5 -101.5t73.5 -135t37 -163.5t10.5 -187.5q0 -84 -10.5 -169t-33.5 -164t-58 -148t-84 -120t-112 -80.5t-142 -29.5q-54 0 -91 15.5t-61 37.5t-37 47t-18 43 q-40 -72 -99.5 -107.5t-121.5 -35.5q-54 0 -99.5 21.5t-78.5 65.5t-51.5 112.5t-18.5 163.5q0 168 33.5 292t87 205.5t121 121.5t135.5 40q34 0 64.5 -7.5t57 -26t47 -49t34.5 -75.5l35 135h118q-30 -189 -53 -347q-10 -67 -19.5 -134t-17 -124t-12 -99t-4.5 -59 q0 -32 8 -52t21.5 -31t30 -15.5t34.5 -4.5q38 0 80.5 29.5t79.5 83.5q51 77 82.5 195.5t31.5 267.5q0 94 -10.5 175t-38.5 146q-51 121 -161.5 181.5t-292.5 60.5q-166 0 -308.5 -48.5t-247 -157t-164 -283t-59.5 -427.5q0 -170 43.5 -285.5t121.5 -186t184.5 -101.5 t232.5 -31q69 0 119.5 6t84.5 14q39 9 66 21l-16 -117q-9 -3 -32.5 -9t-55.5 -12t-70.5 -10.5t-77.5 -4.5q-168 0 -301 40t-226 126t-142 221t-49 325zM674 393q0 -106 35.5 -159.5t103.5 -53.5q44 0 79 30t61.5 77.5t44.5 107.5t29.5 120t16.5 114.5t5 91.5q0 211 -131 211 q-50 0 -87.5 -29t-64.5 -75.5t-44.5 -105t-28 -118.5t-15 -115.5t-4.5 -95.5z" />
<glyph unicode="A" horiz-adv-x="1120" d="M-74 0l643 1405h232l248 -1405h-187l-53 313h-563l-142 -313h-178zM319 477h463l-104 625q-3 17 -5 43.5t-3 51.5q-2 29 -2 60h-9q-10 -32 -21 -61q-9 -25 -18.5 -51t-17.5 -43z" />
<glyph unicode="B" horiz-adv-x="1120" d="M70 0l198 1405h494q76 0 138.5 -21t106.5 -60t68.5 -94t24.5 -122q0 -69 -21.5 -129t-58 -108t-84.5 -82t-100 -52l-2 -8q44 -15 81 -43t64 -67t42 -89t15 -108q0 -99 -37.5 -177.5t-98.5 -132.5t-139.5 -83t-160.5 -29h-530zM274 164h326q48 0 93 17t80 50t56 81t21 110 q0 44 -14.5 83t-41.5 68.5t-66.5 46.5t-90.5 17h-297zM362 801h281q60 0 108.5 22t82.5 58t52.5 83t18.5 97q0 92 -57 136t-152 44h-272z" />
<glyph unicode="C" horiz-adv-x="1212" d="M104 494q0 92 12.5 197t41 209t75 200t115.5 169t161.5 117t213.5 44q218 0 331 -123t113 -379v-33h-186v45q0 161 -63.5 242.5t-196.5 81.5q-72 0 -129 -26.5t-101 -71t-76 -103t-54.5 -123t-36.5 -130t-21.5 -124t-10.5 -106.5t-3 -76q0 -175 74 -268t215 -93 q78 0 138.5 29t104.5 77.5t71 112.5t38 134h178q-14 -105 -54 -199.5t-105.5 -166t-156.5 -113.5t-208 -42q-110 0 -198.5 31t-151 94.5t-96.5 161.5t-34 232z" />
<glyph unicode="D" horiz-adv-x="1212" d="M70 0l198 1405h416q111 0 198.5 -33t147.5 -99t91.5 -164.5t31.5 -229.5q0 -91 -14 -191.5t-44.5 -198.5t-78.5 -186.5t-116 -155.5t-156.5 -107t-200.5 -40h-473zM274 164h248q88 0 155 33t116.5 88t83 127.5t53.5 152t28.5 160t8.5 152.5q0 92 -20.5 160.5t-59.5 113.5 t-95.5 67.5t-127.5 22.5h-240z" />
<glyph unicode="E" horiz-adv-x="1120" d="M70 0l198 1405h867l-25 -164h-686l-62 -440h596l-22 -164h-596l-66 -473h699l-25 -164h-878z" />
<glyph unicode="F" horiz-adv-x="1026" d="M70 0l198 1405h811l-24 -164h-631l-64 -455h558l-23 -163h-557l-88 -623h-180z" />
<glyph unicode="G" horiz-adv-x="1307" d="M102 494q0 92 13 197t42.5 209t78 200t120 169t168 117t221.5 44q235 0 355.5 -124t120.5 -380h-187v14q0 161 -70.5 242.5t-220.5 81.5q-76 0 -135.5 -25t-105.5 -68t-80 -99.5t-58 -119t-39 -128t-23.5 -125t-11.5 -110.5t-3 -85q0 -174 76.5 -267.5t236.5 -93.5 q85 0 150.5 28.5t112.5 77t75.5 112.5t40.5 135l12 77h-368l22 158h551l-104 -731h-119l-17 156q-65 -84 -156.5 -132.5t-215.5 -48.5q-110 0 -199 31t-152 94.5t-97 161.5t-34 232z" />
<glyph unicode="H" horiz-adv-x="1212" d="M70 0l198 1405h181l-87 -604h566l86 604h180l-199 -1405h-180l90 637h-565l-90 -637h-180z" />
<glyph unicode="I" horiz-adv-x="467" d="M70 0l198 1405h181l-199 -1405h-180z" />
<glyph unicode="J" horiz-adv-x="840" d="M-2 254q0 9 0.5 20t2.5 30t5.5 48t9.5 74h179q-6 -44 -10 -70t-6 -41t-2.5 -22t-0.5 -12q0 -70 35.5 -105t103.5 -35q78 0 125 46.5t60 136.5l153 1081h181l-152 -1071q-25 -177 -120.5 -268t-250.5 -91q-151 0 -232 71t-81 208z" />
<glyph unicode="K" horiz-adv-x="1120" d="M70 0l198 1405h181l-105 -731l647 731h215l-501 -567l317 -838h-201l-250 686l-260 -250l-61 -436h-180z" />
<glyph unicode="L" d="M70 0l198 1405h181l-175 -1241h574l-25 -164h-753z" />
<glyph unicode="M" horiz-adv-x="1399" d="M49 0l199 1405h270l117 -922q5 -34 7 -81t4 -90q2 -50 3 -103h8q13 54 26 105q6 22 12 45t13 45t13.5 42.5t13.5 36.5l381 922h277l-199 -1405h-180l143 1020q2 15 7.5 44.5t10.5 58.5q6 34 13 73h-8q-13 -39 -25 -73q-11 -29 -21.5 -58.5t-17.5 -44.5l-424 -1020h-162 l-133 1020q-2 11 -4.5 40.5t-4.5 59.5q-3 35 -5 76h-8q-5 -41 -9 -76q-4 -30 -7 -59t-5 -41l-143 -1020h-162z" />
<glyph unicode="N" horiz-adv-x="1212" d="M68 0l198 1405h148l399 -883q8 -20 19.5 -52t22.5 -62q12 -35 24 -74l6 2q4 40 8 76q3 31 6.5 62t5.5 48l125 883h162l-199 -1405h-141l-403 895q-11 22 -22 54t-22 62q-12 35 -24 72l-6 -2q-2 -38 -6 -72q-3 -29 -6.5 -61t-6.5 -53l-127 -895h-161z" />
<glyph unicode="O" horiz-adv-x="1307" d="M104 506q0 98 13.5 204.5t44.5 209t80.5 195t121.5 162.5t168.5 111.5t219.5 41.5q115 0 205.5 -33.5t153 -100t95.5 -167t33 -234.5q0 -98 -14 -204t-45 -208.5t-81 -194.5t-122 -161.5t-168 -110.5t-219 -41q-115 0 -205.5 33t-152.5 99t-95 165.5t-33 233.5zM289 510 q0 -186 79 -277.5t224 -91.5q93 0 163 35t121.5 93.5t85.5 135.5t54 161t28.5 169t8.5 160q0 92 -20.5 161.5t-59.5 115.5t-95.5 69t-127.5 23q-92 0 -162 -34.5t-121.5 -93t-85.5 -135t-54.5 -160.5t-29 -169.5t-8.5 -161.5z" />
<glyph unicode="P" horiz-adv-x="1120" d="M70 0l198 1405h482q97 0 170 -26t121 -73t72 -112.5t24 -144.5q0 -111 -35 -198.5t-97.5 -147.5t-150 -91.5t-192.5 -31.5h-330l-82 -580h-180zM356 743h324q57 0 105.5 19t84 54.5t56 86t20.5 113.5q0 51 -13.5 92.5t-39.5 71t-64.5 45.5t-89.5 16h-315z" />
<glyph unicode="Q" horiz-adv-x="1307" d="M104 506q0 98 13.5 204.5t44.5 209t80.5 195t121.5 162.5t168.5 111.5t219.5 41.5q115 0 205.5 -33.5t153 -100t95.5 -167t33 -234.5q0 -83 -10 -172t-31.5 -177t-56 -171t-84 -153.5t-114.5 -125.5t-148 -86l249 -264h-225l-213 229h-16q-115 0 -205.5 33t-152.5 99 t-95 165.5t-33 233.5zM289 510q0 -186 79 -277.5t224 -91.5q93 0 163 35t121.5 93.5t85.5 135.5t54 161t28.5 169t8.5 160q0 92 -20.5 161.5t-59.5 115.5t-95.5 69t-127.5 23q-92 0 -162 -34.5t-121.5 -93t-85.5 -135t-54.5 -160.5t-29 -169.5t-8.5 -161.5z" />
<glyph unicode="R" horiz-adv-x="1212" d="M70 0l198 1405h545q100 0 172 -23.5t118.5 -66.5t68.5 -103t22 -133q0 -78 -21 -145.5t-59 -122.5t-93 -96t-122 -64l188 -651h-190l-180 621h-379l-88 -621h-180zM360 784h363q59 0 110.5 19.5t90 54.5t60.5 84.5t22 108.5q0 91 -55.5 140.5t-164.5 49.5h-362z" />
<glyph unicode="S" horiz-adv-x="1120" d="M68 385q0 23 0.5 46t5.5 48h186q-5 -26 -7.5 -50t-2.5 -46q0 -63 19 -108.5t55 -75.5t86.5 -44t113.5 -14q42 0 92.5 11t94.5 38.5t74 75.5t30 123q0 58 -26 99t-69 73t-97.5 57t-111.5 51t-111.5 56.5t-97.5 71.5t-69 97t-26 134q0 97 29.5 172t85.5 126t137 77.5 t184 26.5q121 0 204 -33.5t134 -92t73.5 -138.5t22.5 -173h-186q0 88 -24 141t-61.5 82t-83.5 38.5t-89 9.5q-27 0 -68 -6.5t-79 -28.5t-65.5 -64.5t-27.5 -115.5q0 -55 26.5 -93.5t69 -67.5t97.5 -53t112.5 -49t112.5 -55.5t97.5 -73t69 -101t26.5 -140.5q0 -47 -9 -98 t-31 -100t-58.5 -93t-91.5 -77.5t-130 -53t-174 -19.5q-101 0 -182.5 27t-139 79.5t-89 129t-31.5 174.5z" />
<glyph unicode="T" horiz-adv-x="1026" d="M131 1241l25 164h946l-25 -164h-383l-174 -1241h-180l174 1241h-383z" />
<glyph unicode="U" horiz-adv-x="1212" d="M117 354q0 18 6 72.5t16 131.5t22.5 170t26.5 187q32 221 72 490h180q-40 -275 -71 -496q-13 -94 -25.5 -185.5t-22.5 -165.5t-16 -122.5t-6 -56.5q0 -118 64 -178t182 -60q132 0 218 78t107 227l136 959h180l-135 -948q-17 -119 -59.5 -209t-107.5 -150.5t-151.5 -91.5 t-191.5 -31q-202 0 -313 96.5t-111 282.5z" />
<glyph unicode="V" horiz-adv-x="1120" d="M152 1405h186l188 -1208h9l524 1208h180l-627 -1405h-231z" />
<glyph unicode="W" horiz-adv-x="1585" d="M158 1405h182l80 -971q2 -31 3.5 -74t2.5 -82q1 -46 2 -94h8q10 38 21 79q10 35 22.5 79.5t26.5 91.5l295 971h260l35 -971q1 -24 1.5 -65.5t0.5 -83.5v-101h8q14 45 27 90q11 38 24.5 81.5t26.5 78.5l350 971h168l-524 -1405h-234l-41 1235h-10q-13 -54 -25 -106 q-5 -22 -11 -46t-12.5 -47t-12.5 -44.5t-11 -39.5l-303 -952h-233z" />
<glyph unicode="X" horiz-adv-x="1120" d="M-63 0l552 737l-315 668h205l237 -502l186 250q35 47 68.5 92t60 80.5t42.5 57.5l16 22h203l-22 -29q-21 -29 -56 -76t-80 -107t-92 -122l-250 -332l346 -739h-202l-269 573l-432 -573h-198z" />
<glyph unicode="Y" horiz-adv-x="1120" d="M143 1405h197l256 -651h8l438 651h189l-569 -823l-82 -582h-181l82 582z" />
<glyph unicode="Z" horiz-adv-x="1026" d="M-33 0l6 78l822 1163h-619l25 164h876l-6 -78l-823 -1163h676l-25 -164h-932z" />
<glyph unicode="[" horiz-adv-x="467" d="M-27 -330l254 1835h326l-18 -133h-170l-220 -1569h170l-18 -133h-324z" />
<glyph unicode="\" horiz-adv-x="467" d="M100 1505h144l223 -1605h-145z" />
<glyph unicode="]" horiz-adv-x="467" d="M-86 -330l18 133h168l219 1569h-169l18 133h326l-256 -1835h-324z" />
<glyph unicode="^" horiz-adv-x="788" d="M18 602l390 803h219l168 -803h-185l-116 645l-293 -645h-183z" />
<glyph unicode="_" d="M-92 -254l12 109h932l-14 -109h-930z" />
<glyph unicode="`" horiz-adv-x="559" d="M131 1475l4 6h184l138 -271h-142z" />
<glyph unicode="a" d="M68 375q0 185 36.5 321.5t96 226.5t133.5 134.5t149 44.5q37 0 71 -8.5t63 -28.5t52 -53.5t38 -83.5l36 149h134q-36 -244 -63 -438q-12 -83 -23 -163t-19.5 -144t-14 -105t-5.5 -45q0 -31 14.5 -44t34.5 -13h65l-16 -117q-16 -11 -45.5 -22t-69.5 -11q-32 0 -59 9.5 t-46 30.5t-30 53t-12 77q-59 -87 -117.5 -128.5t-130.5 -41.5q-59 0 -109 23.5t-86 72.5t-56.5 124.5t-20.5 179.5zM240 358q0 -233 151 -233q49 0 87 33t66.5 85.5t48.5 118t32.5 132t18 126.5t5.5 101q0 231 -141 231q-55 0 -96 -31.5t-71 -83t-49.5 -116t-31 -130.5 t-16 -127.5t-4.5 -105.5z" />
<glyph unicode="b" d="M47 0l207 1481h168l-72 -527q57 78 114 113t128 35q59 0 109 -23.5t86 -72.5t56.5 -124.5t20.5 -179.5q0 -185 -36.5 -321.5t-96 -226.5t-133.5 -134.5t-149 -44.5q-39 0 -74 8.5t-64.5 28.5t-53.5 54t-40 84l-37 -150h-133zM274 356q0 -231 150 -231q55 0 96 32t71 83 t49.5 116t31 131t16 127t4.5 105q0 233 -151 233q-53 0 -93.5 -33t-70.5 -85.5t-49.5 -118t-31.5 -132t-17 -126.5t-5 -101z" />
<glyph unicode="c" horiz-adv-x="840" d="M63 367q0 79 7.5 164.5t26 167t49.5 155t78.5 128.5t113.5 87.5t154 32.5q150 0 228.5 -94.5t78.5 -292.5v-37h-174v35q0 118 -32.5 178.5t-100.5 60.5q-57 0 -97.5 -34.5t-69 -88t-45.5 -119.5t-26.5 -129.5t-12.5 -117t-3 -82.5q0 -122 38.5 -189t112.5 -67q43 0 79 22 t63 59t44 85.5t23 101.5h168q-10 -82 -39 -157.5t-75.5 -133.5t-111.5 -92.5t-147 -34.5q-76 0 -137 23.5t-104 71.5t-66 122t-23 175z" />
<glyph unicode="d" d="M70 375q0 185 36.5 321.5t96 226.5t133.5 134.5t149 44.5q67 0 123.5 -33.5t91.5 -110.5l74 523h168l-207 -1481h-133v145q-54 -88 -120 -129t-140 -41q-59 0 -109 23.5t-86 72.5t-56.5 124.5t-20.5 179.5zM242 358q0 -233 151 -233q53 0 93.5 33t70 85.5t49.5 118 t31.5 132t16.5 126.5t5 101q0 231 -149 231q-55 0 -96 -31.5t-71 -83t-49.5 -116t-31 -130.5t-16 -127.5t-4.5 -105.5z" />
<glyph unicode="e" d="M72 367q0 77 8 161t27.5 166t53 156t84 130t120.5 89t163 33q161 0 246.5 -94.5t85.5 -292.5q0 -53 -3.5 -110t-12.5 -116h-592q-6 -65 -6 -108q0 -256 174 -256q45 0 84 19.5t68.5 52.5t48.5 76.5t26 91.5h170q-12 -78 -43.5 -149t-81.5 -124.5t-118 -85t-154 -31.5 q-83 0 -147.5 23.5t-109 71.5t-68 122t-23.5 175zM272 639h412q2 20 2 40v34q0 118 -39.5 178.5t-118.5 60.5q-56 0 -98.5 -27t-73 -71t-51.5 -100.5t-33 -114.5z" />
<glyph unicode="f" horiz-adv-x="467" d="M-182 -348l16 117h90q97 0 109 98l139 1061h-94l20 149h95l24 172q6 46 22.5 90.5t46 79.5t73.5 56.5t106 21.5q37 0 74.5 -7.5t62.5 -16.5l-16 -117h-90q-48 0 -76.5 -25.5t-34.5 -73.5l-25 -180h187l-21 -149h-186l-139 -1053q-6 -46 -22.5 -90.5t-46 -79.5t-73 -56.5 t-104.5 -21.5q-37 0 -75 8t-62 17z" />
<glyph unicode="g" d="M14 -49h168q0 -176 162 -176q100 0 155.5 67t78.5 209l22 135q-56 -87 -115 -128.5t-135 -41.5t-128.5 32.5t-84.5 85.5t-46.5 120t-14.5 135q0 184 36.5 318.5t95 222.5t132.5 130t149 42q39 0 74 -8.5t64.5 -28.5t53.5 -53.5t40 -83.5l35 149h133l-137 -977 q-18 -126 -52 -215.5t-86 -147t-120.5 -84t-155.5 -26.5q-83 0 -144 26.5t-101 71t-59.5 103t-19.5 123.5zM248 373q0 -107 40 -157t115 -50q50 0 89 30.5t68 79.5t49 110.5t32 123t17.5 117.5t5.5 94q-3 231 -152 231q-56 0 -97 -31t-70.5 -81.5t-48 -113.5t-29.5 -127.5 t-15 -124t-4 -101.5z" />
<glyph unicode="h" d="M45 0l207 1481h168l-74 -529q15 24 38.5 50.5t56 48.5t75 36.5t96.5 14.5q67 0 112 -20.5t72 -54.5t38.5 -77.5t11.5 -89.5q0 -12 -5 -55.5t-13 -106t-18.5 -138.5t-21.5 -154q-26 -182 -57 -406h-168q30 213 55 386q10 74 20.5 146.5t18 132.5t12.5 102t5 54 q0 69 -31.5 100t-91.5 31q-51 0 -93.5 -25.5t-75 -72t-54.5 -110.5t-33 -142l-84 -602h-166z" />
<glyph unicode="i" horiz-adv-x="373" d="M33 0l149 1077h168l-151 -1077h-166zM211 1280l27 201h168l-27 -201h-168z" />
<glyph unicode="j" horiz-adv-x="373" d="M-203 -348l17 117h90q97 0 106 98l170 1210h168l-168 -1202q-7 -46 -23.5 -90.5t-45.5 -79.5t-72.5 -56.5t-104.5 -21.5q-37 0 -74.5 8t-62.5 17zM209 1280l29 201h168l-29 -201h-168z" />
<glyph unicode="k" horiz-adv-x="840" d="M39 0l207 1481h168l-125 -883l403 479h201l-381 -442l246 -635h-185l-180 496l-133 -113l-53 -383h-168z" />
<glyph unicode="l" horiz-adv-x="373" d="M33 0l205 1481h168l-207 -1481h-166z" />
<glyph unicode="m" horiz-adv-x="1399" d="M45 0l152 1077h131v-159q10 23 31.5 54.5t55 60.5t80.5 49t109 20q52 0 90 -15t63.5 -41t40 -60t19.5 -73q11 22 32 54.5t54.5 62.5t81 51t111.5 21q61 0 103 -20.5t67 -54.5t36 -77.5t11 -89.5q0 -12 -5 -55.5t-13 -106t-18.5 -138.5t-21.5 -154q-26 -182 -57 -406h-168 q30 213 55 386q10 74 20.5 146.5t18 132.5t12.5 102t5 54q0 69 -28.5 100t-78.5 31q-47 0 -86.5 -23t-70 -65.5t-51.5 -102t-31 -132.5l-88 -629h-168q30 213 55 386q10 74 20 146.5t17.5 132.5t12.5 102t5 54q0 69 -28.5 100t-77.5 31t-89.5 -25.5t-71.5 -72t-52.5 -110.5 t-32.5 -142l-84 -602h-168z" />
<glyph unicode="n" d="M45 0l152 1077h131v-159q11 23 33 54.5t56.5 60.5t83 49t113.5 20q67 0 112 -20.5t72 -54.5t38.5 -77.5t11.5 -89.5q0 -12 -5 -55.5t-13 -106t-18.5 -138.5t-21.5 -154q-26 -182 -57 -406h-168q30 213 55 386q10 74 20.5 146.5t18 132.5t12.5 102t5 54q0 69 -31.5 100 t-91.5 31q-51 0 -93.5 -25.5t-75 -72t-54.5 -110.5t-33 -142l-84 -602h-168z" />
<glyph unicode="o" d="M68 358q0 74 8 157.5t27.5 166.5t53 159t84 134t120.5 92.5t163 34.5q166 0 253 -94.5t87 -292.5q0 -74 -8 -157.5t-27.5 -165.5t-53 -157.5t-84 -133t-120.5 -92t-163 -34.5q-167 0 -253.5 93t-86.5 290zM242 381q0 -130 39 -193t127 -63q62 0 107 33.5t76.5 86.5 t51 119t30 131.5t14 123t3.5 94.5q0 118 -41 178.5t-125 60.5q-62 0 -107 -32.5t-76.5 -84t-50.5 -116t-30 -128t-14.5 -119.5t-3.5 -91z" />
<glyph unicode="p" d="M-2 -373l203 1450h133v-145q54 88 120 129t140 41q59 0 109 -23.5t86 -72.5t56.5 -124.5t20.5 -179.5q0 -185 -36.5 -321.5t-96 -226.5t-133.5 -134.5t-149 -44.5q-68 0 -124 33.5t-91 110.5l-70 -492h-168zM276 356q0 -231 150 -231q55 0 96 32t71 83t49.5 116t31 131 t16 127t4.5 105q0 233 -151 233q-53 0 -93.5 -33t-70.5 -85.5t-49.5 -118t-31.5 -132t-17 -126.5t-5 -101z" />
<glyph unicode="q" d="M68 375q0 185 36.5 321.5t96 226.5t133.5 134.5t149 44.5q39 0 74 -8.5t64.5 -28.5t53.5 -53.5t40 -83.5l37 149h133l-201 -1431h-168l66 477q-57 -78 -114 -113t-128 -35q-59 0 -109 23.5t-86 72.5t-56.5 124.5t-20.5 179.5zM240 358q0 -233 151 -233q53 0 93.5 33 t70 85.5t49.5 118t31.5 132t16.5 126.5t5 101q0 231 -149 231q-55 0 -96 -31.5t-71 -83t-49.5 -116t-31 -130.5t-16 -127.5t-4.5 -105.5z" />
<glyph unicode="r" horiz-adv-x="559" d="M33 0l151 1077h131v-172q15 31 33 65.5t43.5 63.5t59 48.5t79.5 19.5q17 0 31 -3t25 -6q12 -4 22 -8l-24 -174h-56q-40 0 -78.5 -18.5t-71 -54.5t-56 -90t-33.5 -125l-88 -623h-168z" />
<glyph unicode="s" horiz-adv-x="840" d="M43 307q0 16 0.5 32.5t3.5 33.5h174q-6 -35 -6 -66q0 -48 14.5 -82.5t39.5 -57t58 -33.5t70 -11q36 0 64.5 12t49 33t31.5 49t11 59q0 45 -17.5 78.5t-46.5 60t-66 48.5t-75 44.5t-75 48.5t-66 59.5t-46.5 78.5t-17.5 105q0 64 21 119t63 96t104 64.5t144 23.5 t140.5 -28.5t95.5 -75.5t54 -108t17 -126h-174q0 55 -13 91.5t-34.5 58.5t-48.5 31t-55 9q-23 0 -47.5 -8.5t-45 -25t-34 -41t-13.5 -56.5q0 -61 30.5 -99.5t76 -67t98.5 -55t98.5 -63.5t76 -92.5t30.5 -142.5q0 -78 -24.5 -139t-69.5 -103t-109 -64t-143 -22 q-70 0 -131.5 23.5t-107.5 66.5t-72.5 104.5t-26.5 137.5z" />
<glyph unicode="t" horiz-adv-x="467" d="M70 154q0 10 4.5 48.5t12 94.5t17 125t19.5 139q23 165 53 367h-92l20 149h93l43 299h176l-51 -299h145l-21 -149h-145q-29 -197 -51 -355q-10 -67 -19 -132t-16 -116.5t-11.5 -85.5t-4.5 -38q0 -76 75 -76h60l-17 -117q-24 -12 -59 -20t-65 -8q-47 0 -78.5 14t-51 38 t-28 55.5t-8.5 66.5z" />
<glyph unicode="u" d="M86 217q0 12 5 55.5t13 106.5t18 139t21 154q26 182 58 405h168q-31 -213 -56 -386q-11 -74 -20.5 -146.5t-17.5 -132.5t-12.5 -102t-4.5 -54q0 -69 31.5 -100t91.5 -31q51 0 93.5 25.5t75 72t54.5 110.5t33 142l84 602h168l-152 -1077h-131v158q-12 -23 -34 -54.5 t-56.5 -60t-83 -48.5t-113.5 -20q-67 0 -111.5 20.5t-71.5 54.5t-38.5 77.5t-11.5 89.5z" />
<glyph unicode="v" horiz-adv-x="840" d="M94 1077h178l111 -833h8l344 833h180l-479 -1077h-182z" />
<glyph unicode="w" horiz-adv-x="1212" d="M88 1077h162l61 -606q2 -22 5 -54.5t6 -70t5 -78t3 -78.5h8q8 50 19 99q8 42 19.5 91t24.5 91l193 606h201l28 -606q1 -9 1.5 -25t0.5 -47v-209h9q10 46 21 94q10 42 23.5 91t30.5 96l228 606h157l-417 -1077h-187q-7 160 -12 272.5t-8 188t-4.5 119.5t-2.5 68.5t-1 34.5 v17q0 32 1 67t3 64l4 66h-8q-9 -49 -20 -99q-9 -43 -21.5 -92.5t-26.5 -91.5l-199 -614h-188z" />
<glyph unicode="x" horiz-adv-x="840" d="M-55 0l391 553l-230 524h195l148 -362l243 362h201l-375 -526l240 -551h-195l-157 389l-265 -389h-196z" />
<glyph unicode="y" horiz-adv-x="840" d="M-45 -356l16 116h58q34 0 67.5 11.5t65 39.5t60 74t52.5 115l-178 1077h178l123 -860h9l331 860h181l-439 -1022q-38 -87 -79.5 -165t-91 -136.5t-108 -92.5t-128.5 -34q-35 0 -64.5 3.5t-52.5 13.5z" />
<glyph unicode="z" horiz-adv-x="840" d="M4 0l6 80l582 848h-432l20 149h668l-6 -78l-584 -849h492l-21 -150h-725z" />
<glyph unicode="{" horiz-adv-x="561" d="M29 504l22 172q28 0 57 6.5t53.5 20.5t42.5 37.5t23 58.5l58 403q14 97 48 156.5t82.5 92t107.5 43.5t124 11l-16 -116q-27 0 -56.5 -6t-55.5 -22t-45 -44.5t-25 -73.5q-14 -106 -35 -209.5t-39 -212.5q-9 -52 -24.5 -93t-40.5 -69.5t-60.5 -43.5t-85.5 -15l-2 -20 q84 0 117.5 -44t33.5 -122q0 -63 -7.5 -140.5t-17 -150.5t-17 -132t-7.5 -85q0 -35 13 -57.5t33.5 -35.5t46 -17.5t51.5 -4.5l-17 -117q-57 0 -109 9t-91.5 34t-63 70.5t-23.5 118.5q0 17 1.5 34t5.5 37q16 113 29 204q6 39 11 76.5t9.5 68t7 50.5t2.5 23q0 29 -12.5 49 t-33 32.5t-45.5 18t-50 5.5z" />
<glyph unicode="|" horiz-adv-x="436" d="M137 -354v1835h162v-1835h-162z" />
<glyph unicode="}" horiz-adv-x="561" d="M-86 -326l16 117q27 0 56.5 6t55.5 22t45.5 44.5t25.5 73.5q14 106 34.5 209.5t38.5 211.5q9 52 24.5 93.5t40.5 70t60.5 43.5t85.5 15l2 20q-84 0 -117.5 44t-33.5 122q0 42 3.5 91t9 99.5t12 100t12 92t9 75t3.5 50.5q0 35 -13 57.5t-33.5 35t-46 17.5t-50.5 5l16 116 q58 0 110 -9t91.5 -34t62.5 -70t23 -118q0 -32 -6 -72q-17 -113 -30 -204q-6 -39 -11 -76.5t-9.5 -68t-7 -50.5t-2.5 -23q0 -29 12.5 -49t33 -32t45.5 -17.5t50 -5.5l-22 -172q-28 0 -57 -6.5t-53.5 -20.5t-42.5 -38t-23 -58l-58 -404q-14 -97 -48 -156.5t-82 -92 t-108 -43.5t-124 -11z" />
<glyph unicode="~" horiz-adv-x="981" d="M45 432l27 189q30 41 70 74q34 28 82.5 51.5t109.5 23.5q48 0 88 -19.5t79.5 -43t80.5 -43t90 -19.5q51 0 97.5 22.5t82.5 49.5t58 50.5t24 26.5l-27 -188q-30 -42 -70 -75q-34 -28 -82.5 -51t-109.5 -23q-48 0 -88 19.5t-79.5 43t-80.5 43t-90 19.5q-52 0 -98.5 -22.5 t-82 -50t-57.5 -51t-24 -26.5z" />
<glyph unicode="&#xa1;" horiz-adv-x="559" d="M96 -328q53 265 102 528t99 527h127q-9 -93 -19 -199t-20 -213.5t-19.5 -210.5t-17.5 -189t-13 -150t-7 -93h-232zM279 856l30 221h205l-31 -221h-204z" />
<glyph unicode="&#xa2;" d="M109 530q0 77 7 160.5t25 163.5t48 152.5t76 128.5t110 90.5t149 38.5l31 217h100l-32 -224q118 -21 179.5 -113.5t61.5 -264.5v-37h-166v35q0 188 -96 229l-115 -811q38 9 69.5 33.5t55.5 59.5t39 78.5t21 90.5h159q-10 -80 -38 -153.5t-74 -131t-109.5 -93.5 t-144.5 -40l-33 -237h-100l35 243q-122 23 -190 117.5t-68 267.5zM274 545q0 -100 28.5 -163t84.5 -85l115 813q-50 -13 -86.5 -52.5t-62 -93.5t-41 -116t-24 -120.5t-11.5 -107.5t-3 -75z" />
<glyph unicode="&#xa3;" d="M-2 0l25 162h122l64 461h-148l21 147h147l37 252q31 212 124.5 310t242.5 98q69 0 124.5 -15.5t95 -49.5t60.5 -89t21 -133q0 -26 -2.5 -56.5t-9.5 -80.5h-168q4 22 6 38.5t3.5 28.5t2 21.5t0.5 17.5q0 87 -34.5 127.5t-100.5 40.5q-79 0 -126.5 -54t-64.5 -171l-41 -285 h273l-21 -147h-274l-82 -461h510l-25 -162h-782z" />
<glyph unicode="&#xa4;" d="M-6 326l100 100q-34 59 -52.5 128t-18.5 146q0 76 18.5 145.5t52.5 129.5l-100 100l98 99l86 -89q59 57 132 89t157 32q81 0 154.5 -32t132.5 -89l88 89l98 -99l-100 -100q34 -60 52.5 -129.5t18.5 -145.5q0 -77 -18.5 -146t-52.5 -128l100 -100l-98 -99l-88 88 q-59 -55 -132.5 -86.5t-154.5 -31.5q-84 0 -156 31.5t-131 86.5l-88 -88zM162 700q0 -75 23.5 -141t65 -115t97 -77.5t119.5 -28.5q63 0 118 28.5t96.5 77.5t65 115t23.5 141q0 76 -23.5 142.5t-65 116t-96.5 78t-118 28.5q-64 0 -119.5 -28.5t-97 -78t-65 -116 t-23.5 -142.5z" />
<glyph unicode="&#xa5;" d="M25 346l18 133h326l20 144h-326l19 133h262l-217 649h195l194 -600h8l357 600h170l-400 -649h262l-18 -133h-326l-20 -144h325l-18 -133h-326l-49 -346h-180l49 346h-325z" />
<glyph unicode="&#xa6;" horiz-adv-x="436" d="M137 -354v778h162v-778h-162zM137 702v779h162v-779h-162z" />
<glyph unicode="&#xa7;" d="M59 -125q0 10 1 23t3 25t4.5 22.5t4.5 15.5h174q-5 -23 -5.5 -34t-0.5 -19q0 -27 6 -51t21 -42.5t40 -29t62 -10.5q54 0 87 21.5t51 51t24 60.5t6 49q0 62 -30 104.5t-75.5 75.5t-98.5 64t-98.5 71t-75.5 95t-30 137q0 63 16 116t42.5 95.5t59.5 74.5t68 54 q-38 38 -63 90t-25 127q0 84 25.5 152.5t73 116.5t114.5 74t150 26q73 0 127.5 -19t91.5 -52.5t55.5 -79t18.5 -97.5q0 -10 -1 -23t-3 -25t-4 -22.5t-5 -15.5h-174q5 23 5.5 34t0.5 19q0 27 -6 51t-21 42.5t-40 29t-62 10.5q-54 0 -87 -21.5t-51 -51t-23.5 -60.5t-5.5 -49 q0 -47 17.5 -82t46 -63t65 -51.5t75 -47.5t75 -51.5t65 -63t46 -81.5t17.5 -107q0 -63 -16 -115.5t-42.5 -95t-60 -74.5t-67.5 -53q38 -38 63 -91t25 -128q0 -84 -25.5 -152.5t-73 -116.5t-114.5 -74t-150 -26q-73 0 -128 19t-91.5 52.5t-55 79t-18.5 97.5zM299 567 q0 -57 22 -98.5t57.5 -74t79 -59.5t85.5 -56q43 29 71.5 83.5t28.5 126.5q0 58 -22 99.5t-57.5 73.5t-79 59.5t-85.5 56.5q-43 -29 -71.5 -83.5t-28.5 -127.5z" />
<glyph unicode="&#xa8;" horiz-adv-x="559" d="M170 1286l27 195h178l-27 -195h-178zM477 1286l27 195h178l-27 -195h-178z" />
<glyph unicode="&#xa9;" horiz-adv-x="1237" d="M43 702q0 166 39.5 300.5t113.5 229.5t181 146.5t241 51.5q135 0 241.5 -51.5t181 -146.5t114 -229.5t39.5 -300.5t-39.5 -300t-114 -229t-181 -146.5t-241.5 -51.5q-134 0 -241 51.5t-181 146.5t-113.5 229t-39.5 300zM137 702q0 -144 33 -260t95.5 -198.5t151.5 -127 t201 -44.5t201.5 44.5t152 127t95.5 198.5t33 260t-33 260.5t-95.5 199t-152 127t-201.5 44.5t-201 -44.5t-151.5 -127t-95.5 -199t-33 -260.5zM297 713q0 217 82 323.5t244 106.5q63 0 116 -19.5t91 -58.5t59.5 -98t21.5 -138h-118q0 52 -12 91t-34.5 65t-54 38.5 t-69.5 12.5q-106 0 -155.5 -72t-49.5 -219v-61q0 -147 49.5 -220t155.5 -73q78 0 126 51t48 154h114q0 -80 -21.5 -138.5t-59.5 -97t-91 -57t-116 -18.5q-161 0 -243.5 106.5t-82.5 321.5z" />
<glyph unicode="&#xaa;" horiz-adv-x="621" d="M125 1014q0 125 25 218t65.5 154t91 91t101.5 30q24 0 45.5 -6t39.5 -19.5t32.5 -36t23.5 -56.5l67 102h60q-25 -166 -43 -298q-8 -56 -16 -110.5t-14 -98t-9.5 -71t-3.5 -30.5q0 -22 10.5 -30.5t24.5 -8.5h43l-11 -80q-11 -8 -30.5 -15.5t-46.5 -7.5q-50 0 -79.5 26.5 t-31.5 88.5q-37 -59 -74 -87t-84 -28q-41 0 -75 16t-58.5 49.5t-38.5 85t-14 122.5zM252 1001q0 -149 94 -149q31 0 55 22t42 56.5t31 78.5t21 88t11.5 84.5t3.5 67.5q0 148 -86 148q-35 0 -61 -21t-45 -55t-32 -77t-20.5 -87t-10.5 -85t-3 -71z" />
<glyph unicode="&#xab;" d="M111 668l342 409h149l-289 -409l172 -410h-145zM420 668l344 409h147l-286 -409l170 -410h-144z" />
<glyph unicode="&#xac;" horiz-adv-x="981" d="M88 737l27 191h811l-72 -525h-172l45 334h-639z" />
<glyph unicode="&#xad;" horiz-adv-x="559" d="M6 453l27 200h516l-27 -200h-516z" />
<glyph unicode="&#xae;" horiz-adv-x="1237" d="M43 702q0 166 39.5 300.5t113.5 229.5t181 146.5t241 51.5q135 0 241.5 -51.5t181 -146.5t114 -229.5t39.5 -300.5t-39.5 -300t-114 -229t-181 -146.5t-241.5 -51.5q-134 0 -241 51.5t-181 146.5t-113.5 229t-39.5 300zM137 702q0 -144 33 -260t95.5 -198.5t151.5 -127 t201 -44.5t201.5 44.5t152 127t95.5 198.5t33 260t-33 260.5t-95.5 199t-152 127t-201.5 44.5t-201 -44.5t-151.5 -127t-95.5 -199t-33 -260.5zM356 303v823h330q45 0 84 -15t67 -42t44 -65t16 -84q0 -75 -37.5 -124.5t-91.5 -68.5v-8q9 -4 29.5 -16.5t41.5 -38t36.5 -65.5 t15.5 -99q0 -43 3.5 -71t11 -45.5t18 -27t24.5 -14.5v-35q-8 -3 -25 -6.5t-34 -3.5q-23 0 -44.5 7.5t-37.5 25.5t-25.5 48t-9.5 75q0 63 -13 103.5t-33 64t-43 32.5t-44 9h-166v-359h-117zM473 770h170q62 0 97.5 35.5t35.5 91.5q0 59 -35 90t-92 31h-176v-248z" />
<glyph unicode="&#xaf;" horiz-adv-x="559" d="M164 1227l22 147h512l-22 -147h-512z" />
<glyph unicode="&#xb0;" horiz-adv-x="819" d="M154 1153q0 58 21.5 108.5t59 88t87.5 59t108 21.5t108.5 -21.5t88 -59t59 -88t21.5 -108.5t-21.5 -108t-59 -87.5t-88 -59t-108.5 -21.5t-108 21.5t-87.5 59t-59 87.5t-21.5 108zM262 1153q0 -35 13.5 -65.5t36 -53t53 -36t65.5 -13.5q34 0 64.5 13.5t53 36t35.5 53 t13 65.5q0 34 -13 64.5t-35.5 53t-53 35.5t-64.5 13q-35 0 -65.5 -13t-53 -35.5t-36 -53t-13.5 -64.5z" />
<glyph unicode="&#xb1;" horiz-adv-x="1124" d="M76 0l24 170h803l-24 -170h-803zM164 635l24 172h316l53 377h170l-53 -377h317l-24 -172h-318l-51 -375h-170l51 375h-315z" />
<glyph unicode="&#xb2;" horiz-adv-x="559" d="M78 659l6 33q8 65 42 119.5t79.5 103.5t96.5 94t94.5 91t71.5 95.5t28 107.5q0 15 -4 29.5t-13 26t-24.5 18.5t-38.5 7q-26 0 -46 -10.5t-34 -29t-22.5 -43t-12.5 -52.5l-8 -63h-129q1 84 23.5 144.5t59 99.5t83.5 57t96 18q44 0 82 -10.5t65.5 -33t43.5 -57.5t16 -85 q0 -57 -21.5 -109.5t-56 -101t-77.5 -92.5t-87 -84q-34 -32 -69 -67t-60 -77h299l-18 -129h-465z" />
<glyph unicode="&#xb3;" horiz-adv-x="559" d="M109 848q0 18 1.5 39.5t4.5 38.5h131q-5 -31 -5.5 -44t-0.5 -22q0 -96 86 -96q27 0 51 9.5t42 30t29 51.5t11 73q0 28 -8 47t-21.5 29.5t-31.5 15t-38 4.5h-59l16 117h62q22 0 43.5 9.5t38 28t27 47.5t10.5 68q0 50 -23 72.5t-55 22.5q-42 0 -74 -31.5t-41 -97.5l-4 -27 h-129l6 37q9 54 30.5 97t53.5 74t73 47.5t89 16.5q96 0 150.5 -48.5t54.5 -141.5q0 -89 -35 -142.5t-92 -85.5q38 -21 62 -61.5t24 -99.5q0 -65 -21.5 -117t-57.5 -88t-83 -55t-98 -19q-109 0 -164 53.5t-55 147.5z" />
<glyph unicode="&#xb4;" horiz-adv-x="559" d="M270 1210l176 271h185l2 -6l-221 -265h-142z" />
<glyph unicode="&#xb5;" horiz-adv-x="1180" d="M143 -354l203 1431h168q-31 -213 -56 -386q-11 -74 -20.5 -146.5t-17.5 -132.5t-12.5 -102t-4.5 -54q0 -69 31.5 -100t91.5 -31q52 0 94.5 25.5t75 72t54 110.5t32.5 142l84 602h168l-151 -1077h-131v158q-12 -23 -34 -54.5t-56.5 -60t-83.5 -48.5t-113 -20 q-32 0 -58.5 5t-48.5 14l-47 -348h-168z" />
<glyph unicode="&#xb6;" horiz-adv-x="901" d="M90 883q0 121 38.5 218t103 164.5t148 103.5t173.5 36h428l-18 -125h-99l-229 -1634h-135l229 1634h-108l-230 -1634h-133l123 866q-65 9 -119 40t-92 80t-59 113t-21 138z" />
<glyph unicode="&#xb7;" horiz-adv-x="467" d="M147 590l31 227h207l-31 -227h-207z" />
<glyph unicode="&#xb8;" horiz-adv-x="559" d="M47 -356l14 100h156q37 0 59.5 12t22.5 49q0 19 -14.5 28t-48.5 9h-68l53 181h113l-29 -97q30 -2 57 -9t48 -20t33 -33t12 -48q0 -59 -25.5 -96t-62 -57.5t-78 -28t-72.5 -7.5q-43 0 -89 4.5t-81 12.5z" />
<glyph unicode="&#xb9;" horiz-adv-x="559" d="M109 659l16 119h162l75 529h-163l12 88q24 3 55 11t64.5 20t66 26.5t58.5 30.5h59l-100 -705h149l-16 -119h-438z" />
<glyph unicode="&#xba;" horiz-adv-x="612" d="M119 999q0 50 5.5 107t19 113.5t36 108t57 91t82 63t111.5 23.5q113 0 172.5 -64t59.5 -200q0 -50 -5.5 -106.5t-19 -112t-36.5 -107t-57.5 -90.5t-82.5 -62.5t-111 -23.5q-114 0 -172.5 63t-58.5 197zM248 1016q0 -84 24 -125t78 -41q40 0 69.5 22.5t49.5 57.5 t32.5 79.5t19.5 87.5t9 81.5t2 62.5q0 75 -25.5 114.5t-76.5 39.5q-41 0 -70 -21.5t-49 -56t-32.5 -77t-19.5 -84.5t-9 -79.5t-2 -60.5z" />
<glyph unicode="&#xbb;" d="M45 258l289 410l-172 409h143l234 -409l-346 -410h-148zM354 258l291 410l-174 409h145l232 -409l-344 -410h-150z" />
<glyph unicode="&#xbc;" horiz-adv-x="1401" d="M59 582l17 118h162l75 529h-163l12 88q24 3 55 11t64.5 20t66 26.5t58.5 30.5h59l-100 -705h149l-16 -118h-439zM164 -25l1053 1455h126l-1050 -1455h-129zM774 197l12 106q82 118 157 259t134 284h127q-29 -78 -67 -158.5t-77 -152.5t-75.5 -130t-60.5 -92h174l26 187 q9 18 22.5 44.5t28 57t28.5 63t24 62.5h55l-57 -414h82l-17 -116h-82l-28 -197h-127l28 197h-307z" />
<glyph unicode="&#xbd;" horiz-adv-x="1401" d="M57 582l17 118h162l75 529h-164l13 88q24 3 55 11t64 20t65.5 26.5t58.5 30.5h60l-101 -705h150l-16 -118h-439zM133 -25l1053 1455h127l-1051 -1455h-129zM791 0l6 33q8 65 41.5 119.5t79 103.5t97 94t94.5 91t71 95.5t28 106.5q0 15 -4 30t-13 26.5t-24.5 18.5t-38.5 7 q-26 0 -45.5 -10.5t-33.5 -29t-22.5 -43t-12.5 -52.5l-8 -64h-129q1 85 23.5 145.5t59 99.5t83.5 57t96 18q43 0 81 -10.5t66 -33t44 -58t16 -85.5q0 -57 -21.5 -109.5t-56 -100.5t-77.5 -92.5t-87 -84.5q-34 -32 -69 -66.5t-60 -76.5h299l-19 -129h-464z" />
<glyph unicode="&#xbe;" horiz-adv-x="1401" d="M88 772q0 19 1.5 40t4.5 38h131q-5 -31 -5.5 -43.5t-0.5 -22.5q0 -96 86 -96q27 0 51 9.5t42.5 30t29 51.5t10.5 73q0 28 -8 47t-21.5 29.5t-31 15t-37.5 4.5h-59l16 117h61q22 0 43.5 9.5t38.5 28.5t27 48t10 68q0 49 -23 71.5t-55 22.5q-42 0 -73.5 -31.5t-40.5 -97.5 l-4 -27h-129l6 37q8 54 29.5 97.5t53.5 74t73 47.5t89 17q96 0 150.5 -49t54.5 -142q0 -89 -35 -142t-92 -85q38 -22 62 -62.5t24 -99.5q0 -65 -21.5 -117t-57.5 -88t-83 -55t-98 -19q-108 0 -163.5 53.5t-55.5 147.5zM154 -25l1052 1455h127l-1050 -1455h-129zM768 197 l12 106q82 118 157 259t134 284h127q-29 -78 -67 -158.5t-77 -152.5t-75.5 -130t-60.5 -92h174l26 187q9 18 22.5 44.5t28 57t28.5 63t24 62.5h55l-57 -414h81l-16 -116h-82l-28 -197h-127l28 197h-307z" />
<glyph unicode="&#xbf;" horiz-adv-x="1026" d="M154 -45q0 102 24 175t60.5 128t80.5 96.5t83.5 82t69 84.5t38.5 104l12 84h178l-16 -115q-10 -72 -39 -123t-67 -92.5t-79 -78.5t-75 -80.5t-57 -98.5t-23 -133q0 -28 6 -60t22.5 -59.5t47 -45.5t78.5 -18q57 0 97 23.5t66.5 59t41.5 77.5t22.5 79t9.5 63t2 30h183 q-2 -98 -31.5 -186.5t-85 -155.5t-136.5 -107t-186 -40q-74 0 -134 22t-103 62.5t-66.5 97t-23.5 125.5zM530 856l33 221h205l-33 -221h-205z" />
<glyph unicode="&#xc0;" horiz-adv-x="1120" d="M-74 0l643 1405h232l248 -1405h-187l-53 313h-563l-142 -313h-178zM319 477h463l-104 625q-3 17 -5 43.5t-3 51.5q-2 29 -2 60h-9q-10 -32 -21 -61q-9 -25 -18.5 -51t-17.5 -43zM504 1802l4 6h182l139 -270h-143z" />
<glyph unicode="&#xc1;" horiz-adv-x="1120" d="M-74 0l643 1405h232l248 -1405h-187l-53 313h-563l-142 -313h-178zM319 477h463l-104 625q-3 17 -5 43.5t-3 51.5q-2 29 -2 60h-9q-10 -32 -21 -61q-9 -25 -18.5 -51t-17.5 -43zM598 1538l176 270h187l2 -6l-222 -264h-143z" />
<glyph unicode="&#xc2;" horiz-adv-x="1120" d="M-74 0l643 1405h232l248 -1405h-187l-53 313h-563l-142 -313h-178zM319 477h463l-104 625q-3 17 -5 43.5t-3 51.5q-2 29 -2 60h-9q-10 -32 -21 -61q-9 -25 -18.5 -51t-17.5 -43zM442 1532l215 276h160l135 -276h-157l-68 162l-115 -162h-170z" />
<glyph unicode="&#xc3;" horiz-adv-x="1120" d="M-74 0l643 1405h232l248 -1405h-187l-53 313h-563l-142 -313h-178zM319 477h463l-104 625q-3 17 -5 43.5t-3 51.5q-2 29 -2 60h-9q-10 -32 -21 -61q-9 -25 -18.5 -51t-17.5 -43zM412 1595q5 36 19.5 73.5t38.5 68.5t57.5 51t78.5 20q34 0 63.5 -10t57 -21.5t55 -21.5 t58.5 -10q28 0 49 14t31 49h118q-5 -35 -19.5 -73t-39 -69t-58.5 -51t-79 -20q-35 0 -64 10t-56.5 22t-55 22t-58.5 10q-28 0 -49 -14.5t-31 -49.5h-116z" />
<glyph unicode="&#xc4;" horiz-adv-x="1120" d="M-74 0l643 1405h232l248 -1405h-187l-53 313h-563l-142 -313h-178zM319 477h463l-104 625q-3 17 -5 43.5t-3 51.5q-2 29 -2 60h-9q-10 -32 -21 -61q-9 -25 -18.5 -51t-17.5 -43zM477 1614l29 194h176l-27 -194h-178zM784 1614l27 194h178l-26 -194h-179z" />
<glyph unicode="&#xc5;" horiz-adv-x="1120" d="M-74 0l643 1405h232l248 -1405h-187l-53 313h-563l-142 -313h-178zM319 477h463l-104 625q-3 17 -5 43.5t-3 51.5q-2 29 -2 60h-9q-10 -32 -21 -61q-9 -25 -18.5 -51t-17.5 -43zM530 1636q0 45 17.5 82t46 63.5t65 41t74.5 14.5q39 0 71 -13t55.5 -36t36.5 -54.5 t13 -68.5q0 -42 -16.5 -79t-44.5 -64t-64 -42.5t-75 -15.5t-71.5 13t-56.5 35.5t-37.5 54t-13.5 69.5zM623 1642q0 -19 6.5 -36.5t18.5 -30.5t29 -21t38 -8t39.5 8.5t33 23.5t23 35.5t8.5 45.5q0 19 -7 36.5t-19 30.5t-29 21t-37 8q-43 0 -73.5 -31.5t-30.5 -81.5z" />
<glyph unicode="&#xc6;" horiz-adv-x="1679" d="M-88 0l766 1405h1022l-25 -164h-751l37 -440h563l-23 -164h-528l41 -473h524l-25 -164h-673l-27 313h-551l-162 -313h-188zM348 477h453l-49 600q-2 17 -3 44t-3 52q-2 29 -3 60h-8q-15 -31 -28 -60q-11 -25 -23.5 -52t-21.5 -44z" />
<glyph unicode="&#xc7;" horiz-adv-x="1212" d="M104 494q0 92 12.5 197t41 209t75 200t115.5 169t161.5 117t213.5 44q218 0 331 -123t113 -379v-33h-186v45q0 161 -63.5 242.5t-196.5 81.5q-72 0 -129 -26.5t-101 -71t-76 -103t-54.5 -123t-36.5 -130t-21.5 -124t-10.5 -106.5t-3 -76q0 -175 74 -268t215 -93 q78 0 138.5 29t104.5 77.5t71 112.5t38 134h178q-14 -105 -54 -199.5t-105.5 -166t-156.5 -113.5t-208 -42h-11l-15 -49q30 -2 57 -9t48 -20t33 -33t12 -48q0 -59 -25.5 -96t-62 -57.5t-78 -28t-72.5 -7.5q-43 0 -89 4.5t-81 12.5l14 100h156q37 0 59.5 12t22.5 49 q0 19 -14.5 28t-48.5 9h-68l42 143q-83 15 -149.5 53.5t-113 101.5t-71.5 151.5t-25 202.5z" />
<glyph unicode="&#xc8;" horiz-adv-x="1120" d="M70 0l198 1405h867l-25 -164h-686l-62 -440h596l-22 -164h-596l-66 -473h699l-25 -164h-878zM483 1802l4 6h185l139 -270h-143z" />
<glyph unicode="&#xc9;" horiz-adv-x="1120" d="M70 0l198 1405h867l-25 -164h-686l-62 -440h596l-22 -164h-596l-66 -473h699l-25 -164h-878zM580 1538l176 270h184l2 -6l-219 -264h-143z" />
<glyph unicode="&#xca;" horiz-adv-x="1120" d="M70 0l198 1405h867l-25 -164h-686l-62 -440h596l-22 -164h-596l-66 -473h699l-25 -164h-878zM424 1532l215 276h160l135 -276h-158l-67 162l-115 -162h-170z" />
<glyph unicode="&#xcb;" horiz-adv-x="1120" d="M70 0l198 1405h867l-25 -164h-686l-62 -440h596l-22 -164h-596l-66 -473h699l-25 -164h-878zM459 1614l26 194h179l-27 -194h-178zM766 1614l27 194h178l-27 -194h-178z" />
<glyph unicode="&#xcc;" horiz-adv-x="467" d="M70 0l198 1405h181l-199 -1405h-180zM175 1803l4 6h184l138 -271h-142z" />
<glyph unicode="&#xcd;" horiz-adv-x="467" d="M70 0l198 1405h181l-199 -1405h-180zM271 1538l176 271h185l2 -6l-221 -265h-142z" />
<glyph unicode="&#xce;" horiz-adv-x="467" d="M70 0l198 1405h181l-199 -1405h-180zM115 1532l215 277h160l135 -277h-158l-67 162l-115 -162h-170z" />
<glyph unicode="&#xcf;" horiz-adv-x="467" d="M70 0l198 1405h181l-199 -1405h-180zM150 1614l27 195h178l-27 -195h-178zM457 1614l27 195h178l-27 -195h-178z" />
<glyph unicode="&#xd0;" horiz-adv-x="1212" d="M29 662l18 131h133l88 612h416q111 0 198.5 -33t147.5 -99t91.5 -164.5t31.5 -229.5q0 -91 -14 -191.5t-44.5 -198.5t-78.5 -186.5t-116 -155.5t-156.5 -107t-200.5 -40h-473l92 662h-133zM274 164h248q88 0 155 33t116.5 88t83 127.5t53.5 152t28.5 160t8.5 152.5 q0 92 -20.5 160.5t-59.5 113.5t-95.5 67.5t-127.5 22.5h-240l-64 -448h322l-18 -131h-322z" />
<glyph unicode="&#xd1;" horiz-adv-x="1212" d="M68 0l198 1405h148l399 -883q8 -20 19.5 -52t22.5 -62q12 -35 24 -74l6 2q4 40 8 76q3 31 6.5 62t5.5 48l125 883h162l-199 -1405h-141l-403 895q-11 22 -22 54t-22 62q-12 35 -24 72l-6 -2q-2 -38 -6 -72q-3 -29 -6.5 -61t-6.5 -53l-127 -895h-161zM452 1596q6 35 20 73 t38 69t58 51t79 20q34 0 63.5 -10t57 -22t55 -22t58.5 -10q27 0 48.5 14.5t30.5 49.5h119q-5 -36 -20 -73.5t-39 -68.5t-58.5 -51t-78.5 -20q-35 0 -64.5 10t-57 21.5t-54.5 21.5t-58 10q-28 0 -49 -14t-31 -49h-117z" />
<glyph unicode="&#xd2;" horiz-adv-x="1307" d="M104 506q0 98 13.5 204.5t44.5 209t80.5 195t121.5 162.5t168.5 111.5t219.5 41.5q115 0 205.5 -33.5t153 -100t95.5 -167t33 -234.5q0 -98 -14 -204t-45 -208.5t-81 -194.5t-122 -161.5t-168 -110.5t-219 -41q-115 0 -205.5 33t-152.5 99t-95 165.5t-33 233.5zM289 510 q0 -186 79 -277.5t224 -91.5q93 0 163 35t121.5 93.5t85.5 135.5t54 161t28.5 169t8.5 160q0 92 -20.5 161.5t-59.5 115.5t-95.5 69t-127.5 23q-92 0 -162 -34.5t-121.5 -93t-85.5 -135t-54.5 -160.5t-29 -169.5t-8.5 -161.5zM592 1803l4 6h184l138 -271h-142z" />
<glyph unicode="&#xd3;" horiz-adv-x="1307" d="M104 506q0 98 13.5 204.5t44.5 209t80.5 195t121.5 162.5t168.5 111.5t219.5 41.5q115 0 205.5 -33.5t153 -100t95.5 -167t33 -234.5q0 -98 -14 -204t-45 -208.5t-81 -194.5t-122 -161.5t-168 -110.5t-219 -41q-115 0 -205.5 33t-152.5 99t-95 165.5t-33 233.5zM289 510 q0 -186 79 -277.5t224 -91.5q93 0 163 35t121.5 93.5t85.5 135.5t54 161t28.5 169t8.5 160q0 92 -20.5 161.5t-59.5 115.5t-95.5 69t-127.5 23q-92 0 -162 -34.5t-121.5 -93t-85.5 -135t-54.5 -160.5t-29 -169.5t-8.5 -161.5zM688 1538l176 271h185l2 -6l-221 -265h-142z " />
<glyph unicode="&#xd4;" horiz-adv-x="1307" d="M104 506q0 98 13.5 204.5t44.5 209t80.5 195t121.5 162.5t168.5 111.5t219.5 41.5q115 0 205.5 -33.5t153 -100t95.5 -167t33 -234.5q0 -98 -14 -204t-45 -208.5t-81 -194.5t-122 -161.5t-168 -110.5t-219 -41q-115 0 -205.5 33t-152.5 99t-95 165.5t-33 233.5zM289 510 q0 -186 79 -277.5t224 -91.5q93 0 163 35t121.5 93.5t85.5 135.5t54 161t28.5 169t8.5 160q0 92 -20.5 161.5t-59.5 115.5t-95.5 69t-127.5 23q-92 0 -162 -34.5t-121.5 -93t-85.5 -135t-54.5 -160.5t-29 -169.5t-8.5 -161.5zM532 1532l215 277h160l135 -277h-158l-67 162 l-115 -162h-170z" />
<glyph unicode="&#xd5;" horiz-adv-x="1307" d="M104 506q0 98 13.5 204.5t44.5 209t80.5 195t121.5 162.5t168.5 111.5t219.5 41.5q115 0 205.5 -33.5t153 -100t95.5 -167t33 -234.5q0 -98 -14 -204t-45 -208.5t-81 -194.5t-122 -161.5t-168 -110.5t-219 -41q-115 0 -205.5 33t-152.5 99t-95 165.5t-33 233.5zM289 510 q0 -186 79 -277.5t224 -91.5q93 0 163 35t121.5 93.5t85.5 135.5t54 161t28.5 169t8.5 160q0 92 -20.5 161.5t-59.5 115.5t-95.5 69t-127.5 23q-92 0 -162 -34.5t-121.5 -93t-85.5 -135t-54.5 -160.5t-29 -169.5t-8.5 -161.5zM500 1596q6 35 20 73t38 69t58 51t79 20 q34 0 63.5 -10t57 -22t55 -22t58.5 -10q27 0 48.5 14.5t30.5 49.5h119q-5 -36 -20 -73.5t-39 -68.5t-58.5 -51t-78.5 -20q-35 0 -64.5 10t-57 21.5t-54.5 21.5t-58 10q-28 0 -49 -14t-31 -49h-117z" />
<glyph unicode="&#xd6;" horiz-adv-x="1307" d="M104 506q0 98 13.5 204.5t44.5 209t80.5 195t121.5 162.5t168.5 111.5t219.5 41.5q115 0 205.5 -33.5t153 -100t95.5 -167t33 -234.5q0 -98 -14 -204t-45 -208.5t-81 -194.5t-122 -161.5t-168 -110.5t-219 -41q-115 0 -205.5 33t-152.5 99t-95 165.5t-33 233.5zM289 510 q0 -186 79 -277.5t224 -91.5q93 0 163 35t121.5 93.5t85.5 135.5t54 161t28.5 169t8.5 160q0 92 -20.5 161.5t-59.5 115.5t-95.5 69t-127.5 23q-92 0 -162 -34.5t-121.5 -93t-85.5 -135t-54.5 -160.5t-29 -169.5t-8.5 -161.5zM567 1614l27 195h178l-27 -195h-178zM874 1614 l27 195h178l-27 -195h-178z" />
<glyph unicode="&#xd7;" horiz-adv-x="981" d="M33 213l356 309l-268 312q34 30 65.5 59.5t63.5 60.5l272 -311l357 311q24 -31 48.5 -60.5t47.5 -59.5l-359 -312l271 -309q-34 -31 -65.5 -60.5t-63.5 -60.5q-68 78 -136.5 154t-134.5 153l-358 -307q-23 31 -47 60.5t-49 60.5z" />
<glyph unicode="&#xd8;" horiz-adv-x="1307" d="M102 -76l123 191q-60 66 -90.5 163t-30.5 228q0 98 13.5 204.5t44.5 209t80.5 195t121.5 162.5t168.5 111.5t219.5 41.5q83 0 152.5 -17.5t125.5 -52.5l78 121h131l-123 -191q60 -68 91.5 -166t31.5 -229q0 -98 -14 -204t-45 -208.5t-81 -194.5t-122 -161.5t-168 -110.5 t-219 -41q-166 0 -281 68l-76 -119h-131zM289 510q0 -71 11.5 -127.5t33.5 -99.5l598 925q-35 28 -81.5 42t-100.5 14q-92 0 -162 -34.5t-121.5 -93t-85.5 -135t-54.5 -160.5t-29 -169.5t-8.5 -161.5zM408 195q72 -54 184 -54q93 0 163 35t121.5 93.5t85.5 135.5t54 161 t28.5 169t8.5 160q0 69 -12 125.5t-35 99.5z" />
<glyph unicode="&#xd9;" horiz-adv-x="1212" d="M117 354q0 18 6 72.5t16 131.5t22.5 170t26.5 187q32 221 72 490h180q-40 -275 -71 -496q-13 -94 -25.5 -185.5t-22.5 -165.5t-16 -122.5t-6 -56.5q0 -118 64 -178t182 -60q132 0 218 78t107 227l136 959h180l-135 -948q-17 -119 -59.5 -209t-107.5 -150.5t-151.5 -91.5 t-191.5 -31q-202 0 -313 96.5t-111 282.5zM538 1803l4 6h184l138 -271h-142z" />
<glyph unicode="&#xda;" horiz-adv-x="1212" d="M117 354q0 18 6 72.5t16 131.5t22.5 170t26.5 187q32 221 72 490h180q-40 -275 -71 -496q-13 -94 -25.5 -185.5t-22.5 -165.5t-16 -122.5t-6 -56.5q0 -118 64 -178t182 -60q132 0 218 78t107 227l136 959h180l-135 -948q-17 -119 -59.5 -209t-107.5 -150.5t-151.5 -91.5 t-191.5 -31q-202 0 -313 96.5t-111 282.5zM634 1538l176 271h185l2 -6l-221 -265h-142z" />
<glyph unicode="&#xdb;" horiz-adv-x="1212" d="M117 354q0 18 6 72.5t16 131.5t22.5 170t26.5 187q32 221 72 490h180q-40 -275 -71 -496q-13 -94 -25.5 -185.5t-22.5 -165.5t-16 -122.5t-6 -56.5q0 -118 64 -178t182 -60q132 0 218 78t107 227l136 959h180l-135 -948q-17 -119 -59.5 -209t-107.5 -150.5t-151.5 -91.5 t-191.5 -31q-202 0 -313 96.5t-111 282.5zM478 1532l215 277h160l135 -277h-158l-67 162l-115 -162h-170z" />
<glyph unicode="&#xdc;" horiz-adv-x="1212" d="M117 354q0 18 6 72.5t16 131.5t22.5 170t26.5 187q32 221 72 490h180q-40 -275 -71 -496q-13 -94 -25.5 -185.5t-22.5 -165.5t-16 -122.5t-6 -56.5q0 -118 64 -178t182 -60q132 0 218 78t107 227l136 959h180l-135 -948q-17 -119 -59.5 -209t-107.5 -150.5t-151.5 -91.5 t-191.5 -31q-202 0 -313 96.5t-111 282.5zM513 1614l27 195h178l-27 -195h-178zM820 1614l27 195h178l-27 -195h-178z" />
<glyph unicode="&#xdd;" horiz-adv-x="1120" d="M143 1405h197l256 -651h8l438 651h189l-569 -823l-82 -582h-181l82 582zM605 1538l176 271h185l2 -6l-221 -265h-142z" />
<glyph unicode="&#xde;" horiz-adv-x="1120" d="M70 0l198 1405h181l-39 -277h301q97 0 170 -25t121 -71t72 -110.5t24 -143.5q0 -111 -35.5 -200t-99.5 -151t-153 -95t-196 -33h-321l-43 -299h-180zM315 463h318q58 0 108 20t87 56.5t58 88.5t21 117q0 103 -52 161.5t-155 58.5h-313z" />
<glyph unicode="&#xdf;" horiz-adv-x="1026" d="M37 0l145 1057q16 120 58.5 205t104 139t138 79t160.5 25q80 0 145.5 -21.5t112.5 -62t72.5 -99.5t25.5 -134q0 -59 -17.5 -118.5t-49.5 -110.5t-77 -90.5t-99 -59.5v-8q43 -17 78 -48t60 -71.5t38.5 -89t13.5 -100.5q0 -92 -34.5 -180t-95.5 -157.5t-144 -112 t-180 -42.5h-175l21 152h137q57 0 110.5 26.5t95 71.5t66.5 104.5t25 126.5q0 50 -16 93t-44.5 75t-68.5 50t-88 18h-137l20 149h121q55 0 103.5 25t84.5 66.5t57 95.5t21 112q0 88 -48 139.5t-144 51.5q-55 0 -102 -19t-83.5 -56t-61 -92t-34.5 -128l-149 -1061h-166z" />
<glyph unicode="&#xe0;" d="M68 375q0 185 36.5 321.5t96 226.5t133.5 134.5t149 44.5q37 0 71 -8.5t63 -28.5t52 -53.5t38 -83.5l36 149h134q-36 -244 -63 -438q-12 -83 -23 -163t-19.5 -144t-14 -105t-5.5 -45q0 -31 14.5 -44t34.5 -13h65l-16 -117q-16 -11 -45.5 -22t-69.5 -11q-32 0 -59 9.5 t-46 30.5t-30 53t-12 77q-59 -87 -117.5 -128.5t-130.5 -41.5q-59 0 -109 23.5t-86 72.5t-56.5 124.5t-20.5 179.5zM240 358q0 -233 151 -233q49 0 87 33t66.5 85.5t48.5 118t32.5 132t18 126.5t5.5 101q0 231 -141 231q-55 0 -96 -31.5t-71 -83t-49.5 -116t-31 -130.5 t-16 -127.5t-4.5 -105.5zM356 1475l4 6h185l137 -271h-141z" />
<glyph unicode="&#xe1;" d="M68 375q0 185 36.5 321.5t96 226.5t133.5 134.5t149 44.5q37 0 71 -8.5t63 -28.5t52 -53.5t38 -83.5l36 149h134q-36 -244 -63 -438q-12 -83 -23 -163t-19.5 -144t-14 -105t-5.5 -45q0 -31 14.5 -44t34.5 -13h65l-16 -117q-16 -11 -45.5 -22t-69.5 -11q-32 0 -59 9.5 t-46 30.5t-30 53t-12 77q-59 -87 -117.5 -128.5t-130.5 -41.5q-59 0 -109 23.5t-86 72.5t-56.5 124.5t-20.5 179.5zM240 358q0 -233 151 -233q49 0 87 33t66.5 85.5t48.5 118t32.5 132t18 126.5t5.5 101q0 231 -141 231q-55 0 -96 -31.5t-71 -83t-49.5 -116t-31 -130.5 t-16 -127.5t-4.5 -105.5zM453 1210l176 271h184l2 -6l-219 -265h-143z" />
<glyph unicode="&#xe2;" d="M68 375q0 185 36.5 321.5t96 226.5t133.5 134.5t149 44.5q37 0 71 -8.5t63 -28.5t52 -53.5t38 -83.5l36 149h134q-36 -244 -63 -438q-12 -83 -23 -163t-19.5 -144t-14 -105t-5.5 -45q0 -31 14.5 -44t34.5 -13h65l-16 -117q-16 -11 -45.5 -22t-69.5 -11q-32 0 -59 9.5 t-46 30.5t-30 53t-12 77q-59 -87 -117.5 -128.5t-130.5 -41.5q-59 0 -109 23.5t-86 72.5t-56.5 124.5t-20.5 179.5zM240 358q0 -233 151 -233q49 0 87 33t66.5 85.5t48.5 118t32.5 132t18 126.5t5.5 101q0 231 -141 231q-55 0 -96 -31.5t-71 -83t-49.5 -116t-31 -130.5 t-16 -127.5t-4.5 -105.5zM297 1204l215 277h160l135 -277h-158l-67 162l-115 -162h-170z" />
<glyph unicode="&#xe3;" d="M68 375q0 185 36.5 321.5t96 226.5t133.5 134.5t149 44.5q37 0 71 -8.5t63 -28.5t52 -53.5t38 -83.5l36 149h134q-36 -244 -63 -438q-12 -83 -23 -163t-19.5 -144t-14 -105t-5.5 -45q0 -31 14.5 -44t34.5 -13h65l-16 -117q-16 -11 -45.5 -22t-69.5 -11q-32 0 -59 9.5 t-46 30.5t-30 53t-12 77q-59 -87 -117.5 -128.5t-130.5 -41.5q-59 0 -109 23.5t-86 72.5t-56.5 124.5t-20.5 179.5zM240 358q0 -233 151 -233q49 0 87 33t66.5 85.5t48.5 118t32.5 132t18 126.5t5.5 101q0 231 -141 231q-55 0 -96 -31.5t-71 -83t-49.5 -116t-31 -130.5 t-16 -127.5t-4.5 -105.5zM264 1268q6 35 21 73t39 69t58 51t79 20q34 0 63.5 -10t57 -22t54.5 -22t58 -10q26 0 48 14.5t30 49.5h121q-5 -36 -20 -73.5t-40 -68.5t-59 -51t-78 -20q-35 0 -64.5 10t-56.5 21.5t-54 21.5t-58 10q-28 0 -49.5 -14t-30.5 -49h-119z" />
<glyph unicode="&#xe4;" d="M68 375q0 185 36.5 321.5t96 226.5t133.5 134.5t149 44.5q37 0 71 -8.5t63 -28.5t52 -53.5t38 -83.5l36 149h134q-36 -244 -63 -438q-12 -83 -23 -163t-19.5 -144t-14 -105t-5.5 -45q0 -31 14.5 -44t34.5 -13h65l-16 -117q-16 -11 -45.5 -22t-69.5 -11q-32 0 -59 9.5 t-46 30.5t-30 53t-12 77q-59 -87 -117.5 -128.5t-130.5 -41.5q-59 0 -109 23.5t-86 72.5t-56.5 124.5t-20.5 179.5zM240 358q0 -233 151 -233q49 0 87 33t66.5 85.5t48.5 118t32.5 132t18 126.5t5.5 101q0 231 -141 231q-55 0 -96 -31.5t-71 -83t-49.5 -116t-31 -130.5 t-16 -127.5t-4.5 -105.5zM332 1286l26 195h179l-27 -195h-178zM639 1286l27 195h178l-27 -195h-178z" />
<glyph unicode="&#xe5;" d="M68 375q0 185 36.5 321.5t96 226.5t133.5 134.5t149 44.5q37 0 71 -8.5t63 -28.5t52 -53.5t38 -83.5l36 149h134q-36 -244 -63 -438q-12 -83 -23 -163t-19.5 -144t-14 -105t-5.5 -45q0 -31 14.5 -44t34.5 -13h65l-16 -117q-16 -11 -45.5 -22t-69.5 -11q-32 0 -59 9.5 t-46 30.5t-30 53t-12 77q-59 -87 -117.5 -128.5t-130.5 -41.5q-59 0 -109 23.5t-86 72.5t-56.5 124.5t-20.5 179.5zM240 358q0 -233 151 -233q49 0 87 33t66.5 85.5t48.5 118t32.5 132t18 126.5t5.5 101q0 231 -141 231q-55 0 -96 -31.5t-71 -83t-49.5 -116t-31 -130.5 t-16 -127.5t-4.5 -105.5zM385 1309q0 44 17 81t45 63.5t65 41t76 14.5q37 0 69.5 -13t56 -36t37 -54.5t13.5 -68.5q0 -42 -16.5 -78.5t-44.5 -63.5t-65 -42.5t-77 -15.5q-38 0 -70 12.5t-55.5 35.5t-37 54.5t-13.5 69.5zM475 1315q0 -19 7 -36.5t19 -30.5t29 -21t37 -8 q22 0 41.5 8.5t34 23.5t23 35.5t8.5 44.5q0 19 -7 36.5t-19 30.5t-29 21t-37 8q-23 0 -42.5 -8.5t-33.5 -23.5t-22.5 -35.5t-8.5 -44.5z" />
<glyph unicode="&#xe6;" horiz-adv-x="1493" d="M53 231q0 84 22 147.5t61.5 108.5t94.5 74.5t122 47t143 24t157 6.5l21 139q2 13 3 24.5t1 22.5q0 28 -7.5 51.5t-24.5 40.5t-46 26t-72 9q-48 0 -82.5 -15.5t-57.5 -42t-35.5 -61.5t-16.5 -75h-166q0 80 29 143.5t80 108t121 68.5t151 24q99 0 162.5 -29.5t97.5 -85.5 q51 53 118 84t158 31q162 0 247 -94.5t85 -292.5q0 -53 -3.5 -110t-12.5 -116h-592q-6 -65 -6 -108q0 -256 174 -256q45 0 84 19.5t68.5 52.5t48.5 76.5t26 91.5h170q-12 -78 -43.5 -149t-81.5 -124.5t-118 -85t-154 -31.5q-112 0 -188.5 41t-118.5 127q-30 -39 -68.5 -70 t-81.5 -53t-89.5 -33.5t-92.5 -11.5q-47 0 -97.5 9t-92.5 36.5t-69.5 78t-27.5 132.5zM231 264q0 -77 32.5 -108t94.5 -31q40 0 82 15.5t78 46.5t62.5 78t35.5 110l17 114q-89 0 -162.5 -8.5t-127 -32.5t-83 -68t-29.5 -116zM831 639h412q2 20 2 40v34q0 118 -39.5 178.5 t-118.5 60.5q-56 0 -98.5 -27t-73 -71t-51.5 -100.5t-33 -114.5z" />
<glyph unicode="&#xe7;" horiz-adv-x="840" d="M63 367q0 79 7.5 164.5t26 167t49.5 155t78.5 128.5t113.5 87.5t154 32.5q150 0 228.5 -94.5t78.5 -292.5v-37h-174v35q0 118 -32.5 178.5t-100.5 60.5q-57 0 -97.5 -34.5t-69 -88t-45.5 -119.5t-26.5 -129.5t-12.5 -117t-3 -82.5q0 -122 38.5 -189t112.5 -67q43 0 79 22 t63 59t44 85.5t23 101.5h168q-10 -80 -37.5 -154t-72.5 -131.5t-107 -93.5t-141 -39l-15 -49q30 -2 57 -9t48 -20t33 -33t12 -48q0 -59 -25.5 -96t-62 -57.5t-78 -28t-72.5 -7.5q-43 0 -89 4.5t-81 12.5l14 100h156q37 0 59.5 12t22.5 49q0 19 -14.5 28t-48.5 9h-68l42 143 q-110 26 -172.5 120t-62.5 262z" />
<glyph unicode="&#xe8;" d="M72 367q0 77 8 161t27.5 166t53 156t84 130t120.5 89t163 33q161 0 246.5 -94.5t85.5 -292.5q0 -53 -3.5 -110t-12.5 -116h-592q-6 -65 -6 -108q0 -256 174 -256q45 0 84 19.5t68.5 52.5t48.5 76.5t26 91.5h170q-12 -78 -43.5 -149t-81.5 -124.5t-118 -85t-154 -31.5 q-83 0 -147.5 23.5t-109 71.5t-68 122t-23.5 175zM272 639h412q2 20 2 40v34q0 118 -39.5 178.5t-118.5 60.5q-56 0 -98.5 -27t-73 -71t-51.5 -100.5t-33 -114.5zM359 1475l4 6h184l138 -271h-142z" />
<glyph unicode="&#xe9;" d="M72 367q0 77 8 161t27.5 166t53 156t84 130t120.5 89t163 33q161 0 246.5 -94.5t85.5 -292.5q0 -53 -3.5 -110t-12.5 -116h-592q-6 -65 -6 -108q0 -256 174 -256q45 0 84 19.5t68.5 52.5t48.5 76.5t26 91.5h170q-12 -78 -43.5 -149t-81.5 -124.5t-118 -85t-154 -31.5 q-83 0 -147.5 23.5t-109 71.5t-68 122t-23.5 175zM272 639h412q2 20 2 40v34q0 118 -39.5 178.5t-118.5 60.5q-56 0 -98.5 -27t-73 -71t-51.5 -100.5t-33 -114.5zM455 1210l176 271h185l2 -6l-221 -265h-142z" />
<glyph unicode="&#xea;" d="M72 367q0 77 8 161t27.5 166t53 156t84 130t120.5 89t163 33q161 0 246.5 -94.5t85.5 -292.5q0 -53 -3.5 -110t-12.5 -116h-592q-6 -65 -6 -108q0 -256 174 -256q45 0 84 19.5t68.5 52.5t48.5 76.5t26 91.5h170q-12 -78 -43.5 -149t-81.5 -124.5t-118 -85t-154 -31.5 q-83 0 -147.5 23.5t-109 71.5t-68 122t-23.5 175zM272 639h412q2 20 2 40v34q0 118 -39.5 178.5t-118.5 60.5q-56 0 -98.5 -27t-73 -71t-51.5 -100.5t-33 -114.5zM299 1204l215 277h160l135 -277h-158l-67 162l-115 -162h-170z" />
<glyph unicode="&#xeb;" d="M72 367q0 77 8 161t27.5 166t53 156t84 130t120.5 89t163 33q161 0 246.5 -94.5t85.5 -292.5q0 -53 -3.5 -110t-12.5 -116h-592q-6 -65 -6 -108q0 -256 174 -256q45 0 84 19.5t68.5 52.5t48.5 76.5t26 91.5h170q-12 -78 -43.5 -149t-81.5 -124.5t-118 -85t-154 -31.5 q-83 0 -147.5 23.5t-109 71.5t-68 122t-23.5 175zM272 639h412q2 20 2 40v34q0 118 -39.5 178.5t-118.5 60.5q-56 0 -98.5 -27t-73 -71t-51.5 -100.5t-33 -114.5zM334 1286l27 195h178l-27 -195h-178zM641 1286l27 195h178l-27 -195h-178z" />
<glyph unicode="&#xec;" horiz-adv-x="467" d="M78 0l149 1077h168l-151 -1077h-166zM126 1475l4 6h184l138 -271h-142z" />
<glyph unicode="&#xed;" horiz-adv-x="467" d="M78 0l149 1077h168l-151 -1077h-166zM222 1210l176 271h185l2 -6l-221 -265h-142z" />
<glyph unicode="&#xee;" horiz-adv-x="467" d="M66 1204l215 277h160l135 -277h-158l-67 162l-115 -162h-170zM78 0l149 1077h168l-151 -1077h-166z" />
<glyph unicode="&#xef;" horiz-adv-x="467" d="M78 0l149 1077h168l-151 -1077h-166zM101 1286l27 195h178l-27 -195h-178zM408 1286l27 195h178l-27 -195h-178z" />
<glyph unicode="&#xf0;" d="M72 362q0 197 38 337t100 229.5t140 131.5t158 42q34 0 63.5 -7t55.5 -18q-17 45 -40.5 87t-49.5 85l-244 -20l16 123l148 12q-19 26 -38.5 53.5t-41.5 55.5l4 8h180q20 -25 40.5 -50t37.5 -51l244 23l-19 -123l-147 -14q71 -118 111 -252t40 -295q0 -192 -34.5 -332.5 t-95.5 -232t-144 -135.5t-180 -44q-168 0 -255 94.5t-87 292.5zM246 381q0 -130 39 -193t127 -63q62 0 107.5 33.5t77 86.5t50.5 119t29.5 131.5t14 123t3.5 94.5q0 118 -41 178.5t-125 60.5q-62 0 -107 -32.5t-76 -84t-50.5 -116t-30.5 -128t-14.5 -119.5t-3.5 -91z" />
<glyph unicode="&#xf1;" d="M45 0l152 1077h131v-159q11 23 33 54.5t56.5 60.5t83 49t113.5 20q67 0 112 -20.5t72 -54.5t38.5 -77.5t11.5 -89.5q0 -12 -5 -55.5t-13 -106t-18.5 -138.5t-21.5 -154q-26 -182 -57 -406h-168q30 213 55 386q10 74 20.5 146.5t18 132.5t12.5 102t5 54q0 69 -31.5 100 t-91.5 31q-51 0 -93.5 -25.5t-75 -72t-54.5 -110.5t-33 -142l-84 -602h-168zM257 1268q6 35 20 73t38 69t58 51t79 20q34 0 63.5 -10t57 -22t55 -22t58.5 -10q27 0 48.5 14.5t30.5 49.5h119q-5 -36 -20 -73.5t-39 -68.5t-58.5 -51t-78.5 -20q-35 0 -64.5 10t-57 21.5 t-54.5 21.5t-58 10q-28 0 -49 -14t-31 -49h-117z" />
<glyph unicode="&#xf2;" d="M68 358q0 74 8 157.5t27.5 166.5t53 159t84 134t120.5 92.5t163 34.5q166 0 253 -94.5t87 -292.5q0 -74 -8 -157.5t-27.5 -165.5t-53 -157.5t-84 -133t-120.5 -92t-163 -34.5q-167 0 -253.5 93t-86.5 290zM242 381q0 -130 39 -193t127 -63q62 0 107 33.5t76.5 86.5 t51 119t30 131.5t14 123t3.5 94.5q0 118 -41 178.5t-125 60.5q-62 0 -107 -32.5t-76.5 -84t-50.5 -116t-30 -128t-14.5 -119.5t-3.5 -91zM357 1475l4 6h184l138 -271h-142z" />
<glyph unicode="&#xf3;" d="M68 358q0 74 8 157.5t27.5 166.5t53 159t84 134t120.5 92.5t163 34.5q166 0 253 -94.5t87 -292.5q0 -74 -8 -157.5t-27.5 -165.5t-53 -157.5t-84 -133t-120.5 -92t-163 -34.5q-167 0 -253.5 93t-86.5 290zM242 381q0 -130 39 -193t127 -63q62 0 107 33.5t76.5 86.5 t51 119t30 131.5t14 123t3.5 94.5q0 118 -41 178.5t-125 60.5q-62 0 -107 -32.5t-76.5 -84t-50.5 -116t-30 -128t-14.5 -119.5t-3.5 -91zM453 1210l176 271h185l2 -6l-221 -265h-142z" />
<glyph unicode="&#xf4;" d="M68 358q0 74 8 157.5t27.5 166.5t53 159t84 134t120.5 92.5t163 34.5q166 0 253 -94.5t87 -292.5q0 -74 -8 -157.5t-27.5 -165.5t-53 -157.5t-84 -133t-120.5 -92t-163 -34.5q-167 0 -253.5 93t-86.5 290zM242 381q0 -130 39 -193t127 -63q62 0 107 33.5t76.5 86.5 t51 119t30 131.5t14 123t3.5 94.5q0 118 -41 178.5t-125 60.5q-62 0 -107 -32.5t-76.5 -84t-50.5 -116t-30 -128t-14.5 -119.5t-3.5 -91zM297 1204l215 277h160l135 -277h-158l-67 162l-115 -162h-170z" />
<glyph unicode="&#xf5;" d="M68 358q0 74 8 157.5t27.5 166.5t53 159t84 134t120.5 92.5t163 34.5q166 0 253 -94.5t87 -292.5q0 -74 -8 -157.5t-27.5 -165.5t-53 -157.5t-84 -133t-120.5 -92t-163 -34.5q-167 0 -253.5 93t-86.5 290zM242 381q0 -130 39 -193t127 -63q62 0 107 33.5t76.5 86.5 t51 119t30 131.5t14 123t3.5 94.5q0 118 -41 178.5t-125 60.5q-62 0 -107 -32.5t-76.5 -84t-50.5 -116t-30 -128t-14.5 -119.5t-3.5 -91zM265 1268q6 35 20 73t38 69t58 51t79 20q34 0 63.5 -10t57 -22t55 -22t58.5 -10q27 0 48.5 14.5t30.5 49.5h119q-5 -36 -20 -73.5 t-39 -68.5t-58.5 -51t-78.5 -20q-35 0 -64.5 10t-57 21.5t-54.5 21.5t-58 10q-28 0 -49 -14t-31 -49h-117z" />
<glyph unicode="&#xf6;" d="M68 358q0 74 8 157.5t27.5 166.5t53 159t84 134t120.5 92.5t163 34.5q166 0 253 -94.5t87 -292.5q0 -74 -8 -157.5t-27.5 -165.5t-53 -157.5t-84 -133t-120.5 -92t-163 -34.5q-167 0 -253.5 93t-86.5 290zM242 381q0 -130 39 -193t127 -63q62 0 107 33.5t76.5 86.5 t51 119t30 131.5t14 123t3.5 94.5q0 118 -41 178.5t-125 60.5q-62 0 -107 -32.5t-76.5 -84t-50.5 -116t-30 -128t-14.5 -119.5t-3.5 -91zM332 1286l27 195h178l-27 -195h-178zM639 1286l27 195h178l-27 -195h-178z" />
<glyph unicode="&#xf7;" horiz-adv-x="1124" d="M76 436l22 172h946l-22 -172h-946zM416 104l24 185h172l-24 -185h-172zM506 756l26 186h173l-27 -186h-172z" />
<glyph unicode="&#xf8;" horiz-adv-x="1026" d="M115 -66l80 142q-80 90 -80 282q0 74 8 157.5t27.5 166.5t53 159t84 134t120.5 92.5t163 34.5q54 0 98.5 -10.5t82.5 -30.5l47 82h112l-82 -144q82 -96 82 -284q0 -74 -8 -157.5t-27.5 -165.5t-53 -157.5t-84 -133t-120.5 -92t-163 -34.5q-108 0 -183 39l-45 -80h-112z M289 381q0 -35 2.5 -65t7.5 -56l373 658q-42 34 -101 34q-62 0 -107 -32.5t-76 -84t-50.5 -116t-30.5 -128t-14.5 -119.5t-3.5 -91zM354 158q36 -33 101 -33q62 0 107.5 33.5t77 86.5t50.5 119t29.5 131.5t14 123t3.5 94.5q0 29 -2.5 55t-7.5 49z" />
<glyph unicode="&#xf9;" d="M86 217q0 12 5 55.5t13 106.5t18 139t21 154q26 182 58 405h168q-31 -213 -56 -386q-11 -74 -20.5 -146.5t-17.5 -132.5t-12.5 -102t-4.5 -54q0 -69 31.5 -100t91.5 -31q51 0 93.5 25.5t75 72t54.5 110.5t33 142l84 602h168l-152 -1077h-131v158q-12 -23 -34 -54.5 t-56.5 -60t-83 -48.5t-113.5 -20q-67 0 -111.5 20.5t-71.5 54.5t-38.5 77.5t-11.5 89.5zM357 1475l4 6h184l138 -271h-142z" />
<glyph unicode="&#xfa;" d="M86 217q0 12 5 55.5t13 106.5t18 139t21 154q26 182 58 405h168q-31 -213 -56 -386q-11 -74 -20.5 -146.5t-17.5 -132.5t-12.5 -102t-4.5 -54q0 -69 31.5 -100t91.5 -31q51 0 93.5 25.5t75 72t54.5 110.5t33 142l84 602h168l-152 -1077h-131v158q-12 -23 -34 -54.5 t-56.5 -60t-83 -48.5t-113.5 -20q-67 0 -111.5 20.5t-71.5 54.5t-38.5 77.5t-11.5 89.5zM453 1210l176 271h185l2 -6l-221 -265h-142z" />
<glyph unicode="&#xfb;" d="M86 217q0 12 5 55.5t13 106.5t18 139t21 154q26 182 58 405h168q-31 -213 -56 -386q-11 -74 -20.5 -146.5t-17.5 -132.5t-12.5 -102t-4.5 -54q0 -69 31.5 -100t91.5 -31q51 0 93.5 25.5t75 72t54.5 110.5t33 142l84 602h168l-152 -1077h-131v158q-12 -23 -34 -54.5 t-56.5 -60t-83 -48.5t-113.5 -20q-67 0 -111.5 20.5t-71.5 54.5t-38.5 77.5t-11.5 89.5zM297 1204l215 277h160l135 -277h-158l-67 162l-115 -162h-170z" />
<glyph unicode="&#xfc;" d="M86 217q0 12 5 55.5t13 106.5t18 139t21 154q26 182 58 405h168q-31 -213 -56 -386q-11 -74 -20.5 -146.5t-17.5 -132.5t-12.5 -102t-4.5 -54q0 -69 31.5 -100t91.5 -31q51 0 93.5 25.5t75 72t54.5 110.5t33 142l84 602h168l-152 -1077h-131v158q-12 -23 -34 -54.5 t-56.5 -60t-83 -48.5t-113.5 -20q-67 0 -111.5 20.5t-71.5 54.5t-38.5 77.5t-11.5 89.5zM332 1286l27 195h178l-27 -195h-178zM639 1286l27 195h178l-27 -195h-178z" />
<glyph unicode="&#xfd;" horiz-adv-x="840" d="M-45 -356l16 116h58q34 0 67.5 11.5t65 39.5t60 74t52.5 115l-178 1077h178l123 -860h9l331 860h181l-439 -1022q-38 -87 -79.5 -165t-91 -136.5t-108 -92.5t-128.5 -34q-35 0 -64.5 3.5t-52.5 13.5zM433 1210l176 271h185l2 -6l-221 -265h-142z" />
<glyph unicode="&#xfe;" d="M-2 -373l258 1854h168l-76 -527q51 76 114 112t132 36q59 0 109 -23.5t86 -72.5t56.5 -124.5t20.5 -179.5q0 -185 -36.5 -321.5t-96 -226.5t-133.5 -134.5t-149 -44.5q-68 0 -124 33.5t-91 110.5l-70 -492h-168zM276 356q0 -231 150 -231q55 0 96 32t71 83t49.5 116 t31 131t16 127t4.5 105q0 233 -151 233q-53 0 -93.5 -33t-70.5 -85.5t-49.5 -118t-31.5 -132t-17 -126.5t-5 -101z" />
<glyph unicode="&#xff;" horiz-adv-x="840" d="M-45 -356l16 116h58q34 0 67.5 11.5t65 39.5t60 74t52.5 115l-178 1077h178l123 -860h9l331 860h181l-439 -1022q-38 -87 -79.5 -165t-91 -136.5t-108 -92.5t-128.5 -34q-35 0 -64.5 3.5t-52.5 13.5zM312 1286l27 195h178l-27 -195h-178zM619 1286l27 195h178l-27 -195 h-178z" />
<glyph unicode="&#x152;" horiz-adv-x="1679" d="M82 473q0 63 6 137t20 153t36.5 159.5t55.5 154.5t77 138.5t100.5 112t126.5 75t155 27.5q199 0 289 -164l21 139h737l-25 -164h-557l-61 -440h467l-23 -164h-467l-65 -473h569l-24 -164h-750l21 139q-139 -164 -334 -164q-180 0 -277.5 123.5t-97.5 374.5zM268 481 q0 -171 60 -255.5t172 -84.5q81 0 141.5 41t104 107.5t71 151t44 171.5t22.5 168.5t6 143.5q0 171 -60 255.5t-172 84.5q-78 0 -137 -41t-102 -107.5t-72 -151.5t-46.5 -172t-24.5 -168.5t-7 -142.5z" />
<glyph unicode="&#x153;" horiz-adv-x="1585" d="M94 358q0 74 8 157.5t27.5 166.5t53 159t84.5 134t121 92.5t163 34.5q214 0 293 -156q52 71 128.5 113.5t182.5 42.5q161 0 246.5 -94.5t85.5 -292.5q0 -53 -3.5 -110t-13.5 -116h-591q-4 -32 -5.5 -60t-1.5 -48q0 -256 175 -256q45 0 83.5 19.5t68 52.5t49 76.5 t26.5 91.5h170q-12 -78 -43.5 -149t-81.5 -124.5t-118 -85t-154 -31.5q-109 0 -185.5 39.5t-118.5 120.5q-52 -72 -127.5 -116t-181.5 -44q-166 0 -253 93t-87 290zM268 381q0 -130 39 -193t127 -63q62 0 107.5 33.5t77 86.5t51 119t30 131.5t14 123t3.5 94.5 q0 118 -41 178.5t-125 60.5q-62 0 -107 -32.5t-76.5 -84t-51 -116t-30.5 -128t-14.5 -119.5t-3.5 -91zM899 639h412q2 20 2 40v34q0 118 -39.5 178.5t-118.5 60.5q-56 0 -98.5 -27t-73 -71t-51.5 -100.5t-33 -114.5z" />
<glyph unicode="&#x178;" horiz-adv-x="1120" d="M143 1405h197l256 -651h8l438 651h189l-569 -823l-82 -582h-181l82 582zM484 1614l27 195h178l-27 -195h-178zM791 1614l27 195h178l-27 -195h-178z" />
<glyph unicode="&#x2c6;" horiz-adv-x="559" d="M37 1204l215 277h160l135 -277h-158l-67 162l-115 -162h-170z" />
<glyph unicode="&#x2dc;" horiz-adv-x="559" d="M63 1268q6 35 20 73t38 69t58 51t79 20q34 0 63.5 -10t57 -22t55 -22t58.5 -10q27 0 48.5 14.5t30.5 49.5h119q-5 -36 -20 -73.5t-39 -68.5t-58.5 -51t-78.5 -20q-35 0 -64.5 10t-57 21.5t-54.5 21.5t-58 10q-28 0 -49 -14t-31 -49h-117z" />
<glyph unicode="&#x2000;" horiz-adv-x="918" />
<glyph unicode="&#x2001;" horiz-adv-x="1837" />
<glyph unicode="&#x2002;" horiz-adv-x="918" />
<glyph unicode="&#x2003;" horiz-adv-x="1837" />
<glyph unicode="&#x2004;" horiz-adv-x="612" />
<glyph unicode="&#x2005;" horiz-adv-x="459" />
<glyph unicode="&#x2006;" horiz-adv-x="306" />
<glyph unicode="&#x2007;" horiz-adv-x="306" />
<glyph unicode="&#x2008;" horiz-adv-x="229" />
<glyph unicode="&#x2009;" horiz-adv-x="367" />
<glyph unicode="&#x200a;" horiz-adv-x="102" />
<glyph unicode="&#x2010;" horiz-adv-x="559" d="M6 453l27 200h516l-27 -200h-516z" />
<glyph unicode="&#x2011;" horiz-adv-x="559" d="M6 453l27 200h516l-27 -200h-516z" />
<glyph unicode="&#x2012;" horiz-adv-x="559" d="M6 453l27 200h516l-27 -200h-516z" />
<glyph unicode="&#x2013;" d="M-10 477l20 154h932l-22 -154h-930z" />
<glyph unicode="&#x2014;" horiz-adv-x="1679" d="M-10 477l20 154h1680l-23 -154h-1677z" />
<glyph unicode="&#x2018;" horiz-adv-x="373" d="M174 930l29 203l131 272h112l-104 -254h68l-31 -221h-205z" />
<glyph unicode="&#x2019;" horiz-adv-x="373" d="M90 930l105 254h-68l31 221h204l-28 -203l-131 -272h-113z" />
<glyph unicode="&#x201a;" horiz-adv-x="373" d="M37 -254l104 254h-67l30 221h205l-28 -203l-131 -272h-113z" />
<glyph unicode="&#x201c;" horiz-adv-x="559" d="M111 930l28 203l131 272h113l-104 -254h67l-31 -221h-204zM387 930l29 203l131 272h112l-104 -254h68l-31 -221h-205z" />
<glyph unicode="&#x201d;" horiz-adv-x="559" d="M90 930l105 254h-68l31 221h204l-28 -203l-131 -272h-113zM367 930l104 254h-68l31 221h205l-29 -203l-131 -272h-112z" />
<glyph unicode="&#x201e;" horiz-adv-x="559" d="M37 -254l104 254h-67l30 221h205l-28 -203l-131 -272h-113zM313 -254l105 254h-68l31 221h205l-29 -203l-131 -272h-113z" />
<glyph unicode="&#x2022;" horiz-adv-x="588" d="M70 705q0 46 17.5 87.5t48 72.5t71 49t86.5 18q47 0 88 -18t71.5 -49t48 -72.5t17.5 -87.5q0 -47 -17.5 -88.5t-48 -73t-71.5 -50t-88 -18.5q-46 0 -86.5 18.5t-71 50t-48 73t-17.5 88.5z" />
<glyph unicode="&#x2026;" horiz-adv-x="1679" d="M133 0l31 221h205l-31 -221h-205zM692 0l31 221h205l-31 -221h-205zM1249 0l31 221h205l-31 -221h-205z" />
<glyph unicode="&#x202f;" horiz-adv-x="367" />
<glyph unicode="&#x2039;" horiz-adv-x="559" d="M59 668l342 409h150l-289 -409l172 -410h-145z" />
<glyph unicode="&#x203a;" horiz-adv-x="559" d="M43 258l291 410l-174 409h145l232 -409l-344 -410h-150z" />
<glyph unicode="&#x205f;" horiz-adv-x="459" />
<glyph unicode="&#x20ac;" d="M8 498l21 133h114q0 17 2.5 35t6.5 36q2 19 4.5 36.5t5.5 35.5h-115l21 133h129q38 125 95 222.5t136 164t180.5 101.5t229.5 35q70 0 135 -21l-21 -145q-26 8 -53.5 12t-56.5 4q-163 0 -282.5 -90.5t-188.5 -282.5h413l-20 -133h-432q-3 -18 -5.5 -35.5t-4.5 -36.5 q-4 -18 -6.5 -36t-2.5 -35h432l-20 -133h-414q17 -192 112.5 -282.5t256.5 -90.5q29 0 57.5 4t57.5 12l-21 -145q-35 -9 -69.5 -15t-69.5 -6q-116 0 -206.5 34.5t-153.5 101.5t-98 164.5t-40 222.5h-129z" />
<glyph unicode="&#x2122;" horiz-adv-x="1679" d="M242 1305l14 100h555l-14 -100h-224l-102 -725h-106l102 725h-225zM782 578l117 827h162l78 -662h8l266 662h160l-117 -827h-106l96 688h-8l-277 -688h-96l-82 688h-8l-96 -688h-97z" />
<glyph unicode="&#x25fc;" horiz-adv-x="1075" d="M0 0v1075h1075v-1075h-1075z" />
<glyph unicode="&#xfb01;" horiz-adv-x="840" d="M-182 -348l16 117h90q97 0 109 98l139 1061h-94l20 149h95l24 172q6 46 22.5 90.5t46 79.5t73.5 56.5t106 21.5q37 0 74.5 -7.5t62.5 -16.5l-16 -117h-90q-48 0 -76.5 -25.5t-34.5 -73.5l-25 -180h187l-21 -149h-186l-139 -1053q-6 -46 -22.5 -90.5t-46 -79.5t-73 -56.5 t-104.5 -21.5q-37 0 -75 8t-62 17zM500 0l149 1077h168l-151 -1077h-166zM678 1280l27 201h167l-26 -201h-168z" />
<glyph unicode="&#xfb02;" horiz-adv-x="840" d="M-182 -348l16 117h90q97 0 109 98l139 1061h-94l20 149h95l24 172q6 46 22.5 90.5t46 79.5t73.5 56.5t106 21.5q37 0 74.5 -7.5t62.5 -16.5l-16 -117h-90q-48 0 -76.5 -25.5t-34.5 -73.5l-25 -180h187l-21 -149h-186l-139 -1053q-6 -46 -22.5 -90.5t-46 -79.5t-73 -56.5 t-104.5 -21.5q-37 0 -75 8t-62 17zM500 0l205 1481h167l-206 -1481h-166z" />
</font>
</defs>
</svg>
